Files
2026-04-22 07:49:30 +02:00

293 lines
4.8 KiB
Plaintext

TITLE:Love Dump
SUBTITLE:--Static-X
BPM:130
WAVE:Love Dump.ogg
PREIMAGE:Love Dump.png
OFFSET:-8.816
DEMOSTART:67.8788
MAKER:CatBoat
BGIMAGE:Loading.png
BGMOVIE:.mp4
MOVIEOFFSET:0
COURSE:Oni
LEVEL:10
SCOREINIT:600
SCOREDIFF:50
#START
1212102212121022,
1212102212121022,
1212102212121022,
1212102212121022,
1212102212121022,
1212102212121022,
1212102212121022,
1212102212121022,
1122202211222022,
1122202211222022,
1122202211222022,
1122202211222022,
1122202211222022,
1122202211222022,
1122202211222022,
1122202211222022,
1122202211222022,
1122202211222022,
1122202211222022,
1122202211222022,
1122202211222022,
100100200200200000200200100100200200200000101010,
1,
,
#GOGOSTART
1122202211222022,
1122202211221211,
1122202211222022,
1122202211221211,
1122202211222022,
1122202211222022,
1122202211222022,
#BPMCHANGE 131
#SCROLL 0.992366
1010202020002020101010112000
#GOGOEND
1010,
#GOGOSTART
20111010200010102011101020001010,
#BPMCHANGE 130
#SCROLL 1
20111010200010102011101020001010,
2222222222222222,
2222222222222211,
20111010200010102011101020001010,
20111010200010102011101020001010,
2222222222222222,
2222222222222211,
20111010200010102011101020001010,
20111010200010102011101020001010,
2222222222222222,
2222222222222211,
20111010200010102011101020001010,
20111010200010102011101020001010,
20111010200010102011101020001010,
200000000000000000100000000100000000100000000000000000100000000000000000200000000000000000000000000000000000100000000000000000000000000000000000200000000000000000000000000000000000100000000000000000000000000000000000200000002000000000000000000000000000100000000000000000000000000000000000,
#GOGOEND
#BPMCHANGE 128
#SCROLL 1.01562
3010201110102010,
#BPMCHANGE 133
#SCROLL 0.977444
1010201110102022,
#BPMCHANGE 129
#SCROLL 1.00775
1010201110102010,
#BPMCHANGE 132
#SCROLL 0.984848
1010201110102022,
#BPMCHANGE 128
#SCROLL 1.01562
1010201110102010,
#BPMCHANGE 130
#SCROLL 1
1010201110102022,
1010201110102010,
10001000200010001010101120000000,
#GOGOSTART
1111
#GOGOEND
200000002000,
0202,
#GOGOSTART
1111
#GOGOEND
200000002000,
0202,
#GOGOSTART
1111
#GOGOEND
200000002000,
0202,
#GOGOSTART
11112
#GOGOEND
00000002000,
#BPMCHANGE 131
#SCROLL 0.992366
0202,
3111,
1114,
#GOGOSTART
#BPMCHANGE 129
#SCROLL 1.3
3
#SCROLL 1.00775
111202211112022,
1111202211221211,
#BPMCHANGE 131
#SCROLL 0.992366
1122202211222022,
1122202211221211,
#BPMCHANGE 127
#SCROLL 1.02362
1111202211112022,
#BPMCHANGE 133
#SCROLL 0.977444
1111202211112122,
#BPMCHANGE 129
#SCROLL 1.00775
1111212011112120,
#BPMCHANGE 131
#SCROLL 0.992366
101010102010200010101011
#GOGOEND
20000000,
#GOGOSTART
#BPMCHANGE 130
#SCROLL 1
1111
#GOGOEND
200010002000,
1001201010002000,
#GOGOSTART
1111
#GOGOEND
200010002000,
1001201010002000,
#GOGOSTART
1111
#GOGOEND
200010002000,
1001201010002000,
#GOGOSTART
2222
#GOGOEND
200000000000,
#BPMCHANGE 134
#SCROLL 0.970149
0000000000000022,
#BPMCHANGE 128
#SCROLL 1.01562
1010201110102010,
#BPMCHANGE 131
#SCROLL 0.992366
1010201110102022,
1010201110102010,
1010201110102022,
#BPMCHANGE 128
#SCROLL 1.01562
1010201110102010,
#BPMCHANGE 131
#SCROLL 0.992366
1010201110102022,
1010201110102010,
#BPMCHANGE 129
#SCROLL 1.00775
1040101110102022,
1010201110102010,
#BPMCHANGE 132
#SCROLL 0.984848
1010201110102022,
#BPMCHANGE 129
#SCROLL 1.00775
1010201110102010,
1010201110102022,
#BPMCHANGE 132
#SCROLL 0.984848
1010201110102010,
#BPMCHANGE 130
#SCROLL 1
1010201110102022,
#BPMCHANGE 129
#SCROLL 1.00775
1010201110102010,
#BPMCHANGE 131
#SCROLL 0.992366
10001000200010001010101120001010,
#GOGOSTART
20111010200010102011101020001010,
20111010200010102011101020001010,
#BPMCHANGE 129
#SCROLL 1.00775
2222222222222222,
2222222222222211,
#BPMCHANGE 130
#SCROLL 1
20111010200010102011101020001010,
20111010200010102011101020001010,
2222222222222222,
2222222222222211,
20111010200010102011101020001010,
#BPMCHANGE 132
#SCROLL 0.984848
20111010200010102011101020001010,
#GOGOEND
#BPMCHANGE 129
#SCROLL 1.3
4
#SCROLL 1.00775
000000000000000,
,
#GOGOSTART
#BPMCHANGE 131
#SCROLL 0.992366
20111010200010102011101020001010,
20111010200010102011101020001010,
#GOGOEND
#BPMCHANGE 130
#SCROLL 1.3
4
#SCROLL 1
000000000000000,
,
3001201010002000,
1001201010002000,
10000010200010001000002110000000,
1001201010002000,
1001201010002000,
1001201010002000,
1001201010002000,
1001201010002022,
#BPMCHANGE 128
#SCROLL 1.01562
1010201110102010,
#BPMCHANGE 130
#SCROLL 1
1010201110102022,
#BPMCHANGE 131
#SCROLL 0.992366
1010201110102010,
1010201110102022,
#BPMCHANGE 129
#SCROLL 1.00775
1010201110102010,
1010201110102022,
#BPMCHANGE 131
#SCROLL 0.992366
1010201110102010,
10001000200010001010101120001010,
#GOGOSTART
20111010200010102011101020001010,
20111010200010102011101020001010,
#GOGOEND
#SCROLL 1.3
4
#SCROLL 0.992366
000000000000000,
#BPMCHANGE 128
#SCROLL 1.01562
0,
#GOGOSTART
2222202222222022,
#BPMCHANGE 134
#SCROLL 0.970149
22
#SCROLL 1.2
4
#SCROLL 1.4
4
#GOGOEND
#SCROLL 1.6
400000000000,
#END