396 lines
4.5 KiB
Plaintext
396 lines
4.5 KiB
Plaintext
TITLE:Bocca della Verità
|
|
SUBTITLE:--Hiiragi Kirai ft. flower
|
|
BPM:170
|
|
WAVE:Bocca della Verita.ogg
|
|
OFFSET:-0.094
|
|
DEMOSTART:82.329
|
|
MAKER:Colin
|
|
|
|
COURSE:Oni
|
|
LEVEL:10
|
|
BALLOON:
|
|
SCOREINIT:
|
|
SCOREDIFF:
|
|
NOTESDESIGNER3:Colin
|
|
|
|
|
|
#START
|
|
0000301040004004,
|
|
1030202010102001,
|
|
0120102010102012,
|
|
1010201020102021,
|
|
2022301040004004,
|
|
1030202010102001,
|
|
0120102010102012,
|
|
11212120,
|
|
2111200020101022,
|
|
1202100020101021,
|
|
2022100020101022,
|
|
1202100020102010,
|
|
2010100020101022,
|
|
1202100020101021,
|
|
2022101020101022,
|
|
1202100010101010,
|
|
1010300030003004,
|
|
1000303030303001,
|
|
0030101010102022,
|
|
100100100100200000200000100000100000202020000000,
|
|
111000100100200111200200,
|
|
100200100100100100222000,
|
|
111000100100200111200000,
|
|
11000000,
|
|
000000300100400111200100,
|
|
200100100100200200222000,
|
|
222100100100200111200100,
|
|
2020101020201021,
|
|
200000100100200111200200,
|
|
100100100100200100111000,
|
|
111000100100200111200100,
|
|
200000200000100000200000100000200000101010200100,
|
|
200000200000100000100000202020000100200000100000,
|
|
222222100000100000100000,
|
|
0000301040004004,
|
|
1010202020102001,
|
|
0120102020102012,
|
|
1010201020102021,
|
|
2022301030003004,
|
|
1010101120102001,
|
|
0120101010102012,
|
|
100000100000100000000100000000100000200000001000,
|
|
2000
|
|
#GOGOSTART
|
|
101020121010,
|
|
2022101020121010,
|
|
2022101020121010,
|
|
2012101020121010,
|
|
2020101020121010,
|
|
2012101020121010,
|
|
2012301140123014,
|
|
2022300030003000,
|
|
500800101010200000100000200000100200100200100100,
|
|
2212121120121010,
|
|
200000100200102020100000200100100200100000100100,
|
|
2112102120101010,
|
|
200000200200100000100100200000100200102020100100,
|
|
2012121121121211,
|
|
2112101020121010,
|
|
2012100010001000,
|
|
100000000000202010101000400000000000400000000400,
|
|
1030202010102001,
|
|
0120102010102012,
|
|
1010201020102021,
|
|
2022301040004004,
|
|
1030202010102001,
|
|
0120102010102012,
|
|
1012201020101011,
|
|
21112101,
|
|
2022101020121010,
|
|
2022101020121010,
|
|
2012101020121010,
|
|
22112101,
|
|
2012101020121010,
|
|
2012301140123014,
|
|
2022303030303000,
|
|
300000
|
|
#GOGOEND
|
|
300200200200222000,
|
|
222000300000300000300000,
|
|
2111200020101022,
|
|
1202100020101021,
|
|
2022100020101022,
|
|
1202100020102010,
|
|
21100000,
|
|
#END
|
|
|
|
|
|
COURSE:Hard
|
|
LEVEL:7
|
|
BALLOON:
|
|
SCOREINIT:
|
|
SCOREDIFF:
|
|
NOTESDESIGNER2:Colin
|
|
|
|
|
|
#START
|
|
0000300030003003,
|
|
0030303030303003,
|
|
03111122,
|
|
10222220,
|
|
2000300030003003,
|
|
0030303030303003,
|
|
03111122,
|
|
1000200200202000,
|
|
20101111,
|
|
1101100010101020,
|
|
2202200010101010,
|
|
1101100010101020,
|
|
22101111,
|
|
1101100010101020,
|
|
2202200010101010,
|
|
1101100010101020,
|
|
22303030,
|
|
3030303030303003,
|
|
03110120,
|
|
12101010,
|
|
10110120,
|
|
12101010,
|
|
10110120,
|
|
12000000,
|
|
00110120,
|
|
12101010,
|
|
10110120,
|
|
12101010,
|
|
10110120,
|
|
12101010,
|
|
10111111,
|
|
1010101011001000,
|
|
10500082,
|
|
22303030,
|
|
5080300030003003,
|
|
0030303030303003,
|
|
03111122,
|
|
10222220,
|
|
2000300030003003,
|
|
0030303030303003,
|
|
03111122,
|
|
1000200200202002,
|
|
0020
|
|
#GOGOSTART
|
|
101020111010,
|
|
20112011,
|
|
2000101020111010,
|
|
20112011,
|
|
2000101020111010,
|
|
20112011,
|
|
2000300030003003,
|
|
03303030,
|
|
2000101020001110,
|
|
2000220220222010,
|
|
12102011,
|
|
2000111110001020,
|
|
1000101020200022,
|
|
22112012,
|
|
10212121,
|
|
1333,
|
|
3000300030003003,
|
|
0030303030303003,
|
|
03111122,
|
|
10222220,
|
|
2000300030003003,
|
|
0030303030303003,
|
|
03111122,
|
|
1000200200202002,
|
|
0020101020111010,
|
|
20112011,
|
|
2000101020111010,
|
|
20112011,
|
|
2000101020111010,
|
|
20112011,
|
|
2000101020111010,
|
|
20112030,
|
|
3
|
|
#GOGOEND
|
|
600,
|
|
08303030,
|
|
30101111,
|
|
1101100010101020,
|
|
2202200010101010,
|
|
1101100010101020,
|
|
22100000,
|
|
#END
|
|
|
|
|
|
COURSE:Normal
|
|
LEVEL:6
|
|
BALLOON:
|
|
SCOREINIT:
|
|
SCOREDIFF:
|
|
NOTESDESIGNER1:Colin
|
|
|
|
|
|
#START
|
|
0333,
|
|
3600,
|
|
08100020,
|
|
1202,
|
|
0333,
|
|
3600,
|
|
08100020,
|
|
1202,
|
|
0010
|
|
1110,
|
|
20201110,
|
|
20101110,
|
|
20201111,
|
|
11101110,
|
|
20201110,
|
|
20101110,
|
|
20201111,
|
|
11101010,
|
|
1600,
|
|
8102,
|
|
0101,
|
|
1102,
|
|
0101,
|
|
1102,
|
|
0,
|
|
0102,
|
|
0101,
|
|
1102,
|
|
0101,
|
|
1102,
|
|
0101,
|
|
1101,
|
|
0111,
|
|
00500008,
|
|
0333,
|
|
0333,
|
|
3600,
|
|
08100020,
|
|
1202,
|
|
0333,
|
|
3600,
|
|
08100020,
|
|
1202,
|
|
00
|
|
#GOGOSTART
|
|
111011,
|
|
1121,
|
|
20111011,
|
|
1121,
|
|
20111011,
|
|
1121,
|
|
2333,
|
|
3333,
|
|
58101010,
|
|
0111,
|
|
0111,
|
|
0111,
|
|
0111,
|
|
0111,
|
|
0111,
|
|
0111,
|
|
1333,
|
|
3600,
|
|
08100020,
|
|
1202,
|
|
0333,
|
|
3600,
|
|
08100020,
|
|
1202,
|
|
00111101,
|
|
11102010,
|
|
20111011,
|
|
1121,
|
|
20000111,
|
|
1121,
|
|
2333,
|
|
3333,
|
|
3
|
|
#GOGOEND
|
|
600,
|
|
0,
|
|
80101110,
|
|
20201110,
|
|
20101110,
|
|
20201111,
|
|
11100000,
|
|
#END
|
|
|
|
|
|
COURSE:Easy
|
|
LEVEL:4
|
|
BALLOON:
|
|
SCOREINIT:
|
|
SCOREDIFF:
|
|
NOTESDESIGNER0:Colin
|
|
|
|
|
|
#START
|
|
0303,
|
|
0600,
|
|
08100000,
|
|
1002,
|
|
0303,
|
|
0600,
|
|
08100000,
|
|
1002,
|
|
0111,
|
|
0111,
|
|
0111,
|
|
0011,
|
|
1111,
|
|
0111,
|
|
0111,
|
|
0111,
|
|
1101,
|
|
0600,
|
|
8100,
|
|
0100,
|
|
1,
|
|
0101,
|
|
0100,
|
|
0,
|
|
0100,
|
|
0100,
|
|
1002,
|
|
0101,
|
|
0100,
|
|
0101,
|
|
0101,
|
|
0101,
|
|
00500008,
|
|
0333,
|
|
0303,
|
|
0600,
|
|
08100000,
|
|
1,
|
|
0303,
|
|
0600,
|
|
08100000,
|
|
1,
|
|
0
|
|
#GOGOSTART
|
|
111,
|
|
0101,
|
|
0110,
|
|
0101,
|
|
0111,
|
|
0101,
|
|
0303,
|
|
0303,
|
|
58100010,
|
|
0101,
|
|
0101,
|
|
0101,
|
|
0101,
|
|
0101,
|
|
0101,
|
|
0101,
|
|
1303,
|
|
0600,
|
|
08100000,
|
|
1002,
|
|
0303,
|
|
0600,
|
|
08100000,
|
|
1,
|
|
0111,
|
|
0111,
|
|
0111,
|
|
0111,
|
|
0111,
|
|
0111,
|
|
0303,
|
|
0303,
|
|
0
|
|
#GOGOEND
|
|
600,
|
|
0,
|
|
8111,
|
|
0111,
|
|
0111,
|
|
0111,
|
|
1100,
|
|
#END
|