399 lines
3.8 KiB
Plaintext
399 lines
3.8 KiB
Plaintext
//
|
|
TITLE:COMA
|
|
SUBTITLE:--ensou feat. GUMI / Cytus
|
|
BPM:180
|
|
WAVE:COMA.ogg
|
|
OFFSET:-0.197
|
|
DEMOSTART:56.80
|
|
MAKER:sakurada0291
|
|
SONGVOL:90
|
|
SEVOL:90
|
|
|
|
|
|
COURSE:Oni
|
|
LEVEL:9
|
|
BALLOON:52
|
|
SCOREINIT:
|
|
SCOREDIFF:
|
|
NOTEDESIGNER3:sakurada0291
|
|
|
|
#START
|
|
#BARLINEOFF
|
|
0,
|
|
,
|
|
#BARLINEON
|
|
0,
|
|
1110101020001020,
|
|
1110101022102020,
|
|
1110101020002022,
|
|
1010001021112020,
|
|
1110101020100020,
|
|
1020102020111110,
|
|
1001001020001022,
|
|
1001001050000800,
|
|
1110101020002011,
|
|
1022101020002022,
|
|
1010001020201110,
|
|
0022101022102020,
|
|
1010001020002011,
|
|
11012121,
|
|
11012012,
|
|
1010201010112220,
|
|
1011101020001020,
|
|
1020101020112020,
|
|
1010201020002210,
|
|
1020101022102110,
|
|
11102112,
|
|
1010002010112020,
|
|
1010201022102010,
|
|
2011212011212210,
|
|
1000201010112010,
|
|
0010201011102000,
|
|
1011202010102010,
|
|
0010201210202000,
|
|
1010202210102022,
|
|
1010202010201210,
|
|
1000201110202011,
|
|
1010202210212210,
|
|
30010020,
|
|
01001020,
|
|
30020010,
|
|
10000120,
|
|
30102012,
|
|
02102020,
|
|
3344,
|
|
,
|
|
#GOGOSTART
|
|
1110202011102010,
|
|
0010221120112010,
|
|
1000202011102020,
|
|
0010201011112020,
|
|
1000201010102122,
|
|
1010221020121020,
|
|
1010201122102000,
|
|
1010201122202020,
|
|
1110202011102010,
|
|
0010201022112010,
|
|
1000201122102010,
|
|
0022101020102222,
|
|
#GOGOEND
|
|
1010001120201010,
|
|
01202122,
|
|
1010001220201010,
|
|
0010200022222220,
|
|
12012011,
|
|
21121120,
|
|
21021021,
|
|
22121020,
|
|
5008,
|
|
5008,
|
|
6008,
|
|
6008,
|
|
#GOGOSTART
|
|
2011202011202011,
|
|
2210201110202210,
|
|
2011102011102011,
|
|
2010212110122210,
|
|
2011202011202011,
|
|
2210201110202210,
|
|
2011101020111020,
|
|
1010101022222210,
|
|
#GOGOEND
|
|
7,
|
|
,
|
|
,
|
|
,
|
|
8,
|
|
#END
|
|
|
|
|
|
COURSE:Hard
|
|
LEVEL:7
|
|
BALLOON:42
|
|
SCOREINIT:
|
|
SCOREDIFF:
|
|
NOTEDESIGNER2:sakurada0291
|
|
|
|
#START
|
|
#BARLINEOFF
|
|
0,
|
|
,
|
|
#BARLINEON
|
|
0,
|
|
1110001020001020,
|
|
01112120,
|
|
1110001020002020,
|
|
11012020,
|
|
1110001020100020,
|
|
0010100020111000,
|
|
1001001020000022,
|
|
1001001000000000,
|
|
1110100020002010,
|
|
02102022,
|
|
1010001020001110,
|
|
02112120,
|
|
11012001,
|
|
11012120,
|
|
11012010,
|
|
01201120,
|
|
11112012,
|
|
02102020,
|
|
11212021,
|
|
02112120,
|
|
10102120,
|
|
11021022,
|
|
11212021,
|
|
2010002000102220,
|
|
10211021,
|
|
01201020,
|
|
11221021,
|
|
01210220,
|
|
10201120,
|
|
11021020,
|
|
10211020,
|
|
10221221,
|
|
30010020,
|
|
01001020,
|
|
30020010,
|
|
0002,
|
|
30002011,
|
|
0122,
|
|
3344,
|
|
,
|
|
#GOGOSTART
|
|
10201022,
|
|
01202122,
|
|
10201121,
|
|
0010200020112020,
|
|
10201122,
|
|
01202122,
|
|
10212120,
|
|
1110200022202000,
|
|
10201022,
|
|
01202122,
|
|
10201121,
|
|
01201120,
|
|
#GOGOEND
|
|
11012011,
|
|
00202120,
|
|
11012020,
|
|
1010200022222000,
|
|
10012010,
|
|
20120120,
|
|
20021020,
|
|
20121020,
|
|
5008,
|
|
5008,
|
|
6008,
|
|
6008,
|
|
#GOGOSTART
|
|
2000202000102210,
|
|
2000202000112010,
|
|
2000201000102011,
|
|
2000201020102210,
|
|
2000202000102210,
|
|
2000202000112010,
|
|
20121122,
|
|
1010101022202000,
|
|
#GOGOEND
|
|
7,
|
|
,
|
|
,
|
|
,
|
|
8,
|
|
#END
|
|
|
|
|
|
COURSE:Normal
|
|
LEVEL:7
|
|
BALLOON:8,8,14,31
|
|
SCOREINIT:
|
|
SCOREDIFF:
|
|
NOTEDESIGNER1:sakurada0291
|
|
|
|
#START
|
|
#BARLINEOFF
|
|
0,
|
|
,
|
|
#BARLINEON
|
|
0,
|
|
11012002,
|
|
01102020,
|
|
11012001,
|
|
01012000,
|
|
10010102,
|
|
01102000,
|
|
10012002,
|
|
7008,
|
|
11102021,
|
|
00102022,
|
|
10012011,
|
|
02102120,
|
|
10012001,
|
|
11012020,
|
|
10012010,
|
|
10201220,
|
|
10002012,
|
|
02101000,
|
|
10202021,
|
|
01002020,
|
|
1122,
|
|
10011022,
|
|
1212,
|
|
11020122,
|
|
10001021,
|
|
01201020,
|
|
10201021,
|
|
01010020,
|
|
10201120,
|
|
11021020,
|
|
10211020,
|
|
10220220,
|
|
30010020,
|
|
01001000,
|
|
10010010,
|
|
0002,
|
|
10002001,
|
|
0122,
|
|
7,
|
|
8,
|
|
#GOGOSTART
|
|
10201022,
|
|
0112,
|
|
10201011,
|
|
0212,
|
|
10001022,
|
|
0222,
|
|
1122,
|
|
11102220,
|
|
10201022,
|
|
0112,
|
|
10201011,
|
|
0102,
|
|
#GOGOEND
|
|
10002011,
|
|
0222,
|
|
1022,
|
|
10202220,
|
|
10010010,
|
|
20020020,
|
|
10021020,
|
|
10021000,
|
|
5008,
|
|
5008,
|
|
6008,
|
|
6008,
|
|
#GOGOSTART
|
|
9,
|
|
,
|
|
8,
|
|
,
|
|
10110110,
|
|
20220220,
|
|
1122,
|
|
10102220,
|
|
#GOGOEND
|
|
7,
|
|
,
|
|
,
|
|
,
|
|
8,
|
|
#END
|
|
|
|
|
|
COURSE:Easy
|
|
LEVEL:4
|
|
BALLOON:6,6,12,24
|
|
SCOREINIT:
|
|
SCOREDIFF:
|
|
NOTEDESIGNER0:sakurada0291
|
|
|
|
#START
|
|
#BARLINEOFF
|
|
0,
|
|
,
|
|
#BARLINEON
|
|
0,
|
|
10002002,
|
|
0120,
|
|
10002001,
|
|
01002000,
|
|
10000102,
|
|
0120,
|
|
10012002,
|
|
7008,
|
|
10002001,
|
|
0120,
|
|
10002001,
|
|
0122,
|
|
10002001,
|
|
01002020,
|
|
1020,
|
|
1212,
|
|
10000001,
|
|
0110,
|
|
1020,
|
|
02002000,
|
|
1020,
|
|
1010,
|
|
1010,
|
|
10020020,
|
|
1010,
|
|
1210,
|
|
10000001,
|
|
0022,
|
|
1012,
|
|
1010,
|
|
1011,
|
|
1200,
|
|
3002,
|
|
0010,
|
|
1001,
|
|
,
|
|
1020,
|
|
0120,
|
|
7,
|
|
8,
|
|
#GOGOSTART
|
|
1010,
|
|
0110,
|
|
10000001,
|
|
0202,
|
|
10001002,
|
|
0002,
|
|
5,
|
|
8,
|
|
1010,
|
|
0110,
|
|
1010,
|
|
0202,
|
|
#GOGOEND
|
|
10000001,
|
|
0020,
|
|
1020,
|
|
1020,
|
|
1,
|
|
2,
|
|
1,
|
|
1,
|
|
5008,
|
|
5008,
|
|
6008,
|
|
6008,
|
|
#GOGOSTART
|
|
9,
|
|
,
|
|
8,
|
|
,
|
|
1001,
|
|
2002,
|
|
1020,
|
|
1022,
|
|
#GOGOEND
|
|
7,
|
|
,
|
|
,
|
|
,
|
|
8,
|
|
#END
|