416 lines
5.3 KiB
Plaintext
416 lines
5.3 KiB
Plaintext
TITLE:Ice Drop
|
|
SUBTITLE:--aqu3ra feat. MORE MORE JUMP! / Project SEKAI COLORFUL STAGE!
|
|
BPM:158
|
|
WAVE:Ice Drop.ogg
|
|
OFFSET:-0.045
|
|
DEMOSTART:72.956
|
|
MAKER:Shoxk
|
|
|
|
COURSE:Edit
|
|
LEVEL:8
|
|
BALLOON:
|
|
SCOREINIT:1000
|
|
SCOREDIFF:88
|
|
NOTESDESIGNER4:Shoxk
|
|
|
|
#START
|
|
,
|
|
,
|
|
,
|
|
,
|
|
1000200220102010,
|
|
1000200220102010,
|
|
1000200220102010,
|
|
2010221030000000,
|
|
3010202220102030,
|
|
2030201220122010,
|
|
3010202220102030,
|
|
2030202000112210,
|
|
3010202220102030,
|
|
2030201220122010,
|
|
3010202220102030,
|
|
2030202000112210,
|
|
1000200000102010,
|
|
0010201110102000,
|
|
1010200000102010,
|
|
0011101022202000,
|
|
1000200000102010,
|
|
0010201110102000,
|
|
1010200000102010,
|
|
0011101022202022,
|
|
1010401110104010,
|
|
0010401110222010,
|
|
1010401110404010,
|
|
0010401021202120,
|
|
1010401110104010,
|
|
0010401022102210,
|
|
1010401120104010,
|
|
0010202222112220,
|
|
1000202020102012,
|
|
2010201000202010,
|
|
1010202022102010,
|
|
2210202000202220,
|
|
1000202020102012,
|
|
2010202000202010,
|
|
1010202022102010,
|
|
2010221022112210,
|
|
#SCROLL 0.8
|
|
2000200020102010,
|
|
2000200020202010,
|
|
2000200020102010,
|
|
2010202020102210,
|
|
1000200020102010,
|
|
1000200020102010,
|
|
1020202020102010,
|
|
1000000000
|
|
#SCROLL 3
|
|
404000,
|
|
#GOGOSTART
|
|
#SCROLL 1
|
|
3020202212102010,
|
|
0010202212102002,
|
|
1020202212102010,
|
|
0011201022112022,
|
|
1010201120102022,
|
|
1010201120102022,
|
|
1110202211102022,
|
|
1210221022112110,
|
|
3020202212102010,
|
|
0010202212102022,
|
|
1020202212102010,
|
|
0011201021202021,
|
|
1010201120102011,
|
|
2210200011112021,
|
|
1010201120102011,
|
|
200200100000200000200000200000200000202000100000,
|
|
3010221020102210,
|
|
3010221022112210,
|
|
#GOGOEND
|
|
#SCROLL 3
|
|
4040400040000000,
|
|
#END
|
|
|
|
COURSE:Oni
|
|
LEVEL:7
|
|
BALLOON:5,15
|
|
SCOREINIT:1000
|
|
SCOREDIFF:120
|
|
NOTESDESIGNER3:Shoxk
|
|
|
|
#START
|
|
,
|
|
,
|
|
,
|
|
,
|
|
1000200020102010,
|
|
1000200020102010,
|
|
1000200020102010,
|
|
1010102020300000,
|
|
3010202220102010,
|
|
0010202220222010,
|
|
1010202220102010,
|
|
0010202000202220,
|
|
3010202220102010,
|
|
0010202220222010,
|
|
1010202220102010,
|
|
0010202000202220,
|
|
1000202020102010,
|
|
0010201000202010,
|
|
1010202020102010,
|
|
2010201000404000,
|
|
1000202020102010,
|
|
0010201000202010,
|
|
0010201020102010,
|
|
0010201220202020,
|
|
1010202220102010,
|
|
0010202220122010,
|
|
1010202220102010,
|
|
0010202020102220,
|
|
1010202220102010,
|
|
0010202220122010,
|
|
0010201020102220,
|
|
0010001070000080,
|
|
1000202020102010,
|
|
2010201000202010,
|
|
1010202020102010,
|
|
2010201000222000,
|
|
1000202020102010,
|
|
2010201000202011,
|
|
1010201020102020,
|
|
0020202020202210,
|
|
#SCROLL 0.8
|
|
2000200020102010,
|
|
2000200020102010,
|
|
2010202020102010,
|
|
0010202020002000,
|
|
1000200020102010,
|
|
1000200020102010,
|
|
1020202020102010,
|
|
7000000000008000,
|
|
#GOGOSTART
|
|
#SCROLL 1
|
|
3000201110102010,
|
|
0010201110202010,
|
|
1000201110202010,
|
|
0010201110202022,
|
|
1010201110222010,
|
|
0010201110222010,
|
|
1010201120102010,
|
|
0010201022222000,
|
|
3000201110102010,
|
|
0010201110202010,
|
|
1010201110202010,
|
|
0010201110222020,
|
|
1010201120102011,
|
|
2010200010102011,
|
|
1010201120102011,
|
|
2010200010102210,
|
|
1010221010222010,
|
|
1010221010222010,
|
|
#GOGOEND
|
|
4040400040000000,
|
|
#END
|
|
|
|
COURSE:Hard
|
|
LEVEL:5
|
|
BALLOON:
|
|
SCOREINIT:1000
|
|
SCOREDIFF:65
|
|
NOTESDESIGNER2:Shoxk
|
|
|
|
#START
|
|
,
|
|
,
|
|
,
|
|
,
|
|
1020,
|
|
1022,
|
|
1020,
|
|
5830,
|
|
3010200000102010,
|
|
0010201000202010,
|
|
3010200000102010,
|
|
0010202000102020,
|
|
3010200000102010,
|
|
0010201000202010,
|
|
3010200000102010,
|
|
0010202000102020,
|
|
4000102020001020,
|
|
2020102000202010,
|
|
1010202010102020,
|
|
1020201000202000,
|
|
1000201010002010,
|
|
1010201000102010,
|
|
0010201020102010,
|
|
1020102020200000,
|
|
1010201010102010,
|
|
0010201010202010,
|
|
1010201010102010,
|
|
0010201020222010,
|
|
1010201010102010,
|
|
0010201020222010,
|
|
0010201020102220,
|
|
0020001010404000,
|
|
1000201010002010,
|
|
1010201000002010,
|
|
1010201010202010,
|
|
1020201000202000,
|
|
4000102020001020,
|
|
2020102000201020,
|
|
2010202020102000,
|
|
1010102020200000,
|
|
#SCROLL 0.8
|
|
2000200020002020,
|
|
0020002000100010,
|
|
2020200020002020,
|
|
0010202020102000,
|
|
2000200020002020,
|
|
0020002000100020,
|
|
0010202020102010,
|
|
4000000000404000,
|
|
#GOGOSTART
|
|
#SCROLL 1
|
|
1000201000102000,
|
|
0010201000102000,
|
|
1000201000102000,
|
|
0010201000202000,
|
|
1010201000102010,
|
|
1010201000002010,
|
|
1000201010002000,
|
|
5000000000008000,
|
|
3000201000102000,
|
|
0010201010102000,
|
|
1010201000102000,
|
|
0010201010202000,
|
|
1010200010102020,
|
|
1010200000102000,
|
|
1010200010202010,
|
|
1010200000102000,
|
|
1010200010202000,
|
|
1010200010222000,
|
|
#GOGOEND
|
|
4040400040000000,
|
|
#END
|
|
|
|
COURSE:Normal
|
|
LEVEL:4
|
|
BALLOON:5
|
|
SCOREINIT:1000
|
|
SCOREDIFF:165
|
|
NOTESDESIGNER1:Shoxk
|
|
|
|
#START
|
|
,
|
|
,
|
|
,
|
|
,
|
|
1000000000100010,
|
|
1000000000100010,
|
|
1000000000100010,
|
|
0010100030000000,
|
|
3000200000102000,
|
|
0010200020102000,
|
|
1000200000102000,
|
|
0010200010102000,
|
|
1000200000102000,
|
|
0010200020102000,
|
|
1000200000102000,
|
|
0010200010102000,
|
|
11000101,
|
|
01000020,
|
|
11000101,
|
|
01010120,
|
|
11000101,
|
|
01000020,
|
|
11000101,
|
|
01010120,
|
|
3000200000102000,
|
|
0010200020102000,
|
|
1000200000102000,
|
|
0010200010102000,
|
|
1000200000102000,
|
|
0010200020102000,
|
|
1000200000102000,
|
|
0010200010102000,
|
|
11200101,
|
|
01200020,
|
|
11200101,
|
|
01010120,
|
|
11200101,
|
|
01200020,
|
|
11200101,
|
|
01010220,
|
|
#SCROLL 0.8
|
|
1000000000100010,
|
|
0000000000100010,
|
|
0010000000100010,
|
|
0010000000100000,
|
|
1000000000100010,
|
|
1000000000100010,
|
|
1000000000100010,
|
|
7000000000008000,
|
|
#SCROLL 1
|
|
#GOGOSTART
|
|
10010100,
|
|
01010100,
|
|
10010100,
|
|
01010100,
|
|
11010100,
|
|
11010100,
|
|
11010100,
|
|
50000800,
|
|
10010100,
|
|
01010120,
|
|
10010100,
|
|
01010120,
|
|
10201120,
|
|
50000080,
|
|
10201120,
|
|
70000080,
|
|
10202120,
|
|
10202120,
|
|
#GOGOEND
|
|
40404000,
|
|
#END
|
|
|
|
COURSE:Easy
|
|
LEVEL:3
|
|
BALLOON:10,10
|
|
SCOREINIT:1000
|
|
SCOREDIFF:300
|
|
NOTESDESIGNER0:Shoxk
|
|
|
|
#START
|
|
,
|
|
,
|
|
,
|
|
,
|
|
1,
|
|
1,
|
|
1,
|
|
3,
|
|
11,
|
|
1,
|
|
11,
|
|
1,
|
|
11,
|
|
2,
|
|
11,
|
|
2,
|
|
1,
|
|
1,
|
|
1,
|
|
1,
|
|
1,
|
|
1,
|
|
5,
|
|
08,
|
|
11,
|
|
11,
|
|
11,
|
|
12,
|
|
11,
|
|
11,
|
|
11,
|
|
7080,
|
|
1,
|
|
1,
|
|
1,
|
|
1,
|
|
1,
|
|
1,
|
|
5,
|
|
08,
|
|
#SCROLL 0.8
|
|
22,
|
|
22,
|
|
22,
|
|
01000100,
|
|
12,
|
|
22,
|
|
12,
|
|
4,
|
|
#SCROLL 1
|
|
#GOGOSTART
|
|
3,
|
|
1,
|
|
1,
|
|
1,
|
|
5080,
|
|
5080,
|
|
7,
|
|
0080,
|
|
31,
|
|
11,
|
|
11,
|
|
11,
|
|
1110,
|
|
1110,
|
|
1110,
|
|
1110,
|
|
33,
|
|
33,
|
|
#GOGOEND
|
|
2240,
|
|
#END
|