497 lines
5.6 KiB
Plaintext
497 lines
5.6 KiB
Plaintext
TITLE:QUEEN
|
|
SUBTITLE:--Kanaria feat. GUMI
|
|
BPM:170
|
|
WAVE:QUEEN.ogg
|
|
BGMOVIE:QUEEN.mp4
|
|
OFFSET:-0.838
|
|
DEMOSTART:46.014
|
|
MAKER:Shoxk
|
|
|
|
COURSE:Oni
|
|
LEVEL:8
|
|
BALLOON:3,5
|
|
SCOREINIT:100
|
|
SCOREDIFF:140
|
|
NOTESDESIGNER4:Shoxk
|
|
|
|
#START
|
|
1111,
|
|
1111,
|
|
1111,
|
|
1000100010001022,
|
|
1020102012021020,
|
|
1020102012021020,
|
|
1111111110303000,
|
|
,
|
|
1010200010112010,
|
|
1010200010112020,
|
|
1010200010112010,
|
|
100000100000200000000000100000100100202020100000,
|
|
1010200010122010,
|
|
1010200010122020,
|
|
1010200010122010,
|
|
100000100000200000000000100000200200202020100000,
|
|
#SCROLL 0.75
|
|
3
|
|
#SCROLL 1
|
|
,
|
|
,
|
|
1020102010221020,
|
|
2011202010112220,
|
|
1020102010221020,
|
|
1020102010221120,
|
|
1020102010221020,
|
|
1022101020112222,
|
|
1022102210201022,
|
|
1022102011221222,
|
|
1000
|
|
#SCROLL 1.5
|
|
400
|
|
#SCROLL 1
|
|
210211020,
|
|
1022101020222020,
|
|
1022102210201022,
|
|
1022102011221222,
|
|
1110222011102220,
|
|
1111222210300000,
|
|
|
|
#GOGOSTART
|
|
3020102010211020,
|
|
1020102010211120,
|
|
1020102010211020,
|
|
1120102012021111,
|
|
1020102010211020,
|
|
1020102010211120,
|
|
1120102012111030,
|
|
0012122210007080,
|
|
3020102012021020,
|
|
1020102012021022,
|
|
1020102012021020,
|
|
1020102012021111,
|
|
1020102012021020,
|
|
1020102012021022,
|
|
1020102012121210,
|
|
0030300030002000,
|
|
|
|
#GOGOEND
|
|
1010200010112010,
|
|
1010200010221020,
|
|
1010200010112010,
|
|
100000100000200000000000100000100100202020100000,
|
|
1010200010122010,
|
|
1010200010211020,
|
|
1010200010122010,
|
|
100000100000200000000000100000200200202020100000,
|
|
|
|
1111,
|
|
1111,
|
|
1111,
|
|
1111,
|
|
10101011,
|
|
10101011,
|
|
10101011,
|
|
10101011,
|
|
10101212,
|
|
10101212,
|
|
10101212,
|
|
10101212,
|
|
1000100010221020,
|
|
1000100010221020,
|
|
1000100010221020,
|
|
1000102070000080,
|
|
2112112021121120,
|
|
2112112110300000,
|
|
|
|
#GOGOSTART
|
|
3020102010211020,
|
|
1020102010211120,
|
|
1020102010211020,
|
|
1120102012021212,
|
|
1020102010211020,
|
|
1020102010211120,
|
|
1020102011211030,
|
|
0012121210003000,
|
|
3020102012021220,
|
|
1020102012021222,
|
|
1020102012021220,
|
|
1020102012021111,
|
|
1020102012021220,
|
|
1020102012021221,
|
|
1012101212121210,
|
|
0030300030002000,
|
|
|
|
#GOGOEND
|
|
1010200010112010,
|
|
1010200010112020,
|
|
1010200010112010,
|
|
100000100000200000000000100000100100202020100000,
|
|
1010200010122010,
|
|
1010200010122020,
|
|
1010200010122010,
|
|
100000100000200000000000100000200200202020100000,
|
|
#SCROLL 3
|
|
3,
|
|
#END
|
|
|
|
COURSE:Hard
|
|
LEVEL:6
|
|
BALLOON:15
|
|
SCOREINIT:100
|
|
SCOREDIFF:100
|
|
NOTESDESIGNER2:Shoxk
|
|
|
|
#START
|
|
1122,
|
|
1122,
|
|
0020101020101020,
|
|
2010102020002000,
|
|
1122,
|
|
1221,
|
|
0010002030303020,
|
|
0020202020002000,
|
|
|
|
1020200010102000,
|
|
1020200010201020,
|
|
1020200010102000,
|
|
1020201010102220,
|
|
1020200010102000,
|
|
1020200010201020,
|
|
1020200010102000,
|
|
1020201010102220,
|
|
|
|
#SCROLL 0.75
|
|
7
|
|
#SCROLL 1
|
|
,
|
|
0000000000000080,
|
|
1010102000111020,
|
|
2010205000000080,
|
|
0020001020101010,
|
|
2010202000101020,
|
|
2010202000101010,
|
|
2010205000000080,
|
|
|
|
0020002010100020,
|
|
0020101000101020,
|
|
1000400010101020,
|
|
1020201050000080,
|
|
0020202010100020,
|
|
2020101000102010,
|
|
1110202011102020,
|
|
1110222030300000,
|
|
|
|
#GOGOSTART
|
|
3344,
|
|
3344,
|
|
0020101020101020,
|
|
2010102020102010,
|
|
3344,
|
|
3443,
|
|
0022201020102030,
|
|
0011102010003000,
|
|
1020102010201020,
|
|
1020102011102020,
|
|
1020102010201020,
|
|
1020102010222020,
|
|
1020102010201020,
|
|
1020102011102020,
|
|
1020201010202030,
|
|
0030302030002000,
|
|
|
|
#GOGOEND
|
|
1020200010102000,
|
|
1020200010201020,
|
|
1020200010102000,
|
|
2010102010102220,
|
|
1020200010102000,
|
|
1010200010201020,
|
|
1020200020102000,
|
|
2010202010102220,
|
|
|
|
3000200020002010,
|
|
0010002000201020,
|
|
0020101020101020,
|
|
2010200050000080,
|
|
0020101020202010,
|
|
0020002010202010,
|
|
0020101010202020,
|
|
0020101020002000,
|
|
3000200020002010,
|
|
0010001000102010,
|
|
0010202010202010,
|
|
1010200050000080,
|
|
0020101010202010,
|
|
0020002010101020,
|
|
0020201010202010,
|
|
0020201110202000,
|
|
3001001030010010,
|
|
3001001030300000,
|
|
|
|
#GOGOSTART
|
|
3344,
|
|
3344,
|
|
0020101020101020,
|
|
2010102020102010,
|
|
3344,
|
|
3443,
|
|
0022201020102030,
|
|
0011102010003000,
|
|
1020102010201020,
|
|
1020102011102020,
|
|
1020102010201020,
|
|
1020102010222020,
|
|
1020102010201020,
|
|
1020102011102020,
|
|
1020201010202030,
|
|
0030302030002000,
|
|
|
|
#GOGOEND
|
|
1020200010102000,
|
|
1020200010201020,
|
|
1020200010102000,
|
|
1020201010102220,
|
|
1020200010102000,
|
|
1020200010201020,
|
|
1020200010102000,
|
|
1020201010102220,
|
|
#SCROLL 2
|
|
3,
|
|
#END
|
|
|
|
COURSE:Normal
|
|
LEVEL:5
|
|
BALLOON:5,5,5
|
|
SCOREINIT:
|
|
SCOREDIFF:
|
|
NOTESDESIGNER1:Shoxk
|
|
|
|
#START
|
|
11,
|
|
11,
|
|
11,
|
|
11,
|
|
1110,
|
|
1110,
|
|
1000100030303000,
|
|
,
|
|
1000200010002000,
|
|
1000200010202000,
|
|
1000200010002000,
|
|
1020200050000080,
|
|
1000200010002000,
|
|
1000200010202000,
|
|
1000200010002000,
|
|
1020200050000080,
|
|
3,
|
|
,
|
|
1111,
|
|
1000100010001020,
|
|
1000100010002000,
|
|
1000100010001020,
|
|
1000100010002000,
|
|
1000100010101000,
|
|
1000100020200010,
|
|
1000100010200020,
|
|
1000400010001000,
|
|
1000100010202000,
|
|
1000100020200020,
|
|
1000100010200020,
|
|
3000200030002000,
|
|
3000400030300000,
|
|
|
|
#GOGOSTART
|
|
30101010,
|
|
10101011,
|
|
10101010,
|
|
10101011,
|
|
10101010,
|
|
10101011,
|
|
10101111,
|
|
01101040,
|
|
10101011,
|
|
10101210,
|
|
10101011,
|
|
10101220,
|
|
10101011,
|
|
10101220,
|
|
10101013,
|
|
03303020,
|
|
|
|
#GOGOEND
|
|
1000200010002000,
|
|
1000200010202000,
|
|
1000200010002000,
|
|
1020200070000080,
|
|
1000200010002000,
|
|
1000200010202000,
|
|
1000200010002000,
|
|
1020200070000080,
|
|
|
|
11,
|
|
11,
|
|
11,
|
|
11,
|
|
1110,
|
|
1110,
|
|
1110,
|
|
1110,
|
|
1112,
|
|
1112,
|
|
1112,
|
|
1112,
|
|
1122,
|
|
1122,
|
|
1122,
|
|
1221,
|
|
5000000000000080,
|
|
7000008030300000,
|
|
|
|
#GOGOSTART
|
|
30101010,
|
|
10101011,
|
|
10101010,
|
|
10101011,
|
|
10101010,
|
|
10101011,
|
|
10101111,
|
|
01101040,
|
|
10101011,
|
|
10101210,
|
|
10101011,
|
|
10101220,
|
|
10101011,
|
|
10101220,
|
|
10101013,
|
|
03303020,
|
|
|
|
#GOGOEND
|
|
1000200010002000,
|
|
1000200010202000,
|
|
1000200010002000,
|
|
1020200050000080,
|
|
1000200010002000,
|
|
1000200010202000,
|
|
1000200010002000,
|
|
1020200050000080,
|
|
3,
|
|
#END
|
|
|
|
COURSE:Easy
|
|
LEVEL:2
|
|
BALLOON:
|
|
SCOREINIT:100
|
|
SCOREDIFF:100
|
|
NOTESDESIGNER0:Shoxk
|
|
|
|
#START
|
|
1,
|
|
1,
|
|
1,
|
|
1,
|
|
11,
|
|
11,
|
|
10001001,
|
|
,
|
|
1,
|
|
1,
|
|
1,
|
|
2,
|
|
1,
|
|
1,
|
|
1,
|
|
2,
|
|
|
|
3,
|
|
,
|
|
11,
|
|
11,
|
|
11,
|
|
11,
|
|
11,
|
|
11,
|
|
12,
|
|
12,
|
|
1410,
|
|
12,
|
|
11,
|
|
11,
|
|
50000008,
|
|
50083000,
|
|
|
|
#GOGOSTART
|
|
31,
|
|
11,
|
|
11,
|
|
1022,
|
|
11,
|
|
11,
|
|
10001001,
|
|
01,
|
|
11,
|
|
12,
|
|
11,
|
|
1022,
|
|
11,
|
|
12,
|
|
10001001,
|
|
03,
|
|
|
|
#GOGOEND
|
|
1,
|
|
1,
|
|
1,
|
|
22,
|
|
1,
|
|
1,
|
|
1,
|
|
22,
|
|
|
|
1,
|
|
1,
|
|
1,
|
|
1,
|
|
1,
|
|
1,
|
|
1,
|
|
1,
|
|
11,
|
|
11,
|
|
11,
|
|
11,
|
|
11,
|
|
11,
|
|
11,
|
|
12,
|
|
6,
|
|
0008,
|
|
|
|
#GOGOSTART
|
|
31,
|
|
11,
|
|
11,
|
|
1022,
|
|
11,
|
|
11,
|
|
10001001,
|
|
01,
|
|
11,
|
|
12,
|
|
11,
|
|
1022,
|
|
11,
|
|
12,
|
|
10001001,
|
|
03,
|
|
|
|
#GOGOEND
|
|
1,
|
|
1,
|
|
1,
|
|
2,
|
|
1,
|
|
1,
|
|
1,
|
|
2,
|
|
3,
|
|
#END
|