414 lines
3.5 KiB
Plaintext
414 lines
3.5 KiB
Plaintext
TITLE:KICK BACK
|
|
SUBTITLE:--Kenshi Yonezu / CHAINSAW MAN
|
|
BPM:204
|
|
WAVE:KICK BACK.ogg
|
|
OFFSET:-0.532
|
|
DEMOSTART:52.002
|
|
MAKER:Colin
|
|
|
|
COURSE:Oni
|
|
LEVEL:10
|
|
BALLOON:20
|
|
SCOREINIT:
|
|
SCOREDIFF:
|
|
NOTESDESIGNER3:Colin
|
|
|
|
|
|
#START
|
|
12112121,
|
|
11221122,
|
|
12122121,
|
|
1020201020112222,
|
|
12121121,
|
|
11212121,
|
|
12121121,
|
|
1211201020201010,
|
|
#GOGOSTART
|
|
#SCROLL 1.1
|
|
21221121,
|
|
1010201012102010,
|
|
1010201120102020,
|
|
1010201012112212,
|
|
1010201210102020,
|
|
1010201021112122,
|
|
1010201210102010,
|
|
1010210210221020,
|
|
#GOGOEND
|
|
#SCROLL 1
|
|
1010201210102020,
|
|
11211112,
|
|
1010201120102012,
|
|
1010201120102012,
|
|
1010201210102010,
|
|
1010201210102012,
|
|
11211121,
|
|
1011201120100020,
|
|
#SCROLL 1.1
|
|
1010201010102012,
|
|
1010201012102010,
|
|
1010201210101022,
|
|
1211201122101012,
|
|
1010201210102012,
|
|
1011221112102012,
|
|
1010201012121120,
|
|
11212111,
|
|
#SCROLL 0.8
|
|
10112122,
|
|
1010201020102011,
|
|
1000101120001020,
|
|
1010201020102012,
|
|
10212020,
|
|
1010201020002022,
|
|
1000201120102020,
|
|
1010201020121011,
|
|
100100100100201010202020,
|
|
111211700000,
|
|
,
|
|
800
|
|
#SCROLL 4
|
|
2,
|
|
#GOGOSTART
|
|
#SCROLL 1.5
|
|
1010201010102012,
|
|
1010201210102012,
|
|
1010201210102010,
|
|
1010201212102020,
|
|
1010201210102020,
|
|
1011201212102022,
|
|
1010211122122222,
|
|
1211221212112222,
|
|
1010201212102012,
|
|
1010201212102020,
|
|
1010201120102012,
|
|
1010201022102020,
|
|
11212121,
|
|
1010201020102012,
|
|
#SCROLL 1.6
|
|
1010201020102012,
|
|
1011201122121022,
|
|
#SCROLL 1.7
|
|
1111
|
|
#SCROLL 1.8
|
|
2111
|
|
#SCROLL 1.9
|
|
2111
|
|
#SCROLL 2
|
|
2111,
|
|
#SCROLL 2.1
|
|
2111
|
|
#SCROLL 2.2
|
|
2111
|
|
#SCROLL 2.3
|
|
2111
|
|
#SCROLL 2.4
|
|
2111,
|
|
#GOGOEND
|
|
#SCROLL 1
|
|
1000201212102011,
|
|
20202111,
|
|
#GOGOSTART
|
|
#SCROLL 1.1
|
|
1000201212102010,
|
|
1010201212102020,
|
|
1010201120102010,
|
|
1010102012102222,
|
|
1010201210102010,
|
|
1010201212102010,
|
|
10112012121020
|
|
#BARLINEOFF
|
|
#SCROLL 1
|
|
30,
|
|
0
|
|
#SCROLL 0.9
|
|
3
|
|
#SCROLL 0.8
|
|
2
|
|
#SCROLL 0.7
|
|
3
|
|
#SCROLL 0.6
|
|
2
|
|
#GOGOEND
|
|
#SCROLL 0.5
|
|
300,
|
|
,
|
|
#END
|
|
|
|
COURSE:Hard
|
|
LEVEL:5
|
|
BALLOON:
|
|
SCOREINIT:
|
|
SCOREDIFF:
|
|
NOTESDESIGNER2:Colin
|
|
|
|
|
|
#START
|
|
10112101,
|
|
01201112,
|
|
10102102,
|
|
01212158,
|
|
12102102,
|
|
01201111,
|
|
10121021,
|
|
1022200010101000,
|
|
#GOGOSTART
|
|
10211021,
|
|
11102012,
|
|
10211120,
|
|
11201020,
|
|
10211021,
|
|
10102002,
|
|
10012010,
|
|
11211020,
|
|
#GOGOEND
|
|
10201120,
|
|
10201120,
|
|
10201120,
|
|
10201120,
|
|
10201120,
|
|
10201120,
|
|
10201120,
|
|
10201122,
|
|
11210120,
|
|
11210120,
|
|
11210125,
|
|
00080011,
|
|
11201122,
|
|
10201120,
|
|
50000008,
|
|
21221022,
|
|
1010,
|
|
1010,
|
|
1010,
|
|
1010,
|
|
1010,
|
|
5080,
|
|
2020,
|
|
2222,
|
|
2010,
|
|
1050,
|
|
,
|
|
8002,
|
|
#GOGOSTART
|
|
68201125,
|
|
81201120,
|
|
1110200010102010,
|
|
01201120,
|
|
10201122,
|
|
5086,
|
|
,
|
|
00080020,
|
|
10201201,
|
|
01012020,
|
|
10202201,
|
|
0010200020222000,
|
|
3333,
|
|
3333,
|
|
3333,
|
|
3333,
|
|
3333,
|
|
3333,
|
|
#GOGOEND
|
|
2,
|
|
,
|
|
#GOGOSTART
|
|
10201120,
|
|
10201120,
|
|
10201120,
|
|
10201120,
|
|
10201120,
|
|
10201120,
|
|
10201123,
|
|
03030
|
|
#GOGOEND
|
|
300,
|
|
,
|
|
#END
|
|
|
|
COURSE:Normal
|
|
LEVEL:4
|
|
BALLOON:
|
|
SCOREINIT:
|
|
SCOREDIFF:
|
|
NOTESDESIGNER1:Colin
|
|
|
|
|
|
#START
|
|
#BARLINEOFF
|
|
0,
|
|
,
|
|
,
|
|
,
|
|
,
|
|
,
|
|
,
|
|
,
|
|
#GOGOSTART
|
|
#BARLINEON
|
|
1110,
|
|
1110,
|
|
1110,
|
|
1110,
|
|
1110,
|
|
1110,
|
|
1110,
|
|
1110,
|
|
#GOGOEND
|
|
2020,
|
|
2020,
|
|
2020,
|
|
2020,
|
|
2020,
|
|
2020,
|
|
2020,
|
|
2020,
|
|
5,
|
|
,
|
|
,
|
|
0811,
|
|
1011,
|
|
1011,
|
|
5008,
|
|
1120,
|
|
2020,
|
|
2020,
|
|
2022,
|
|
2020,
|
|
2020,
|
|
2020,
|
|
3,
|
|
3,
|
|
5,
|
|
,
|
|
,
|
|
8,
|
|
#GOGOSTART
|
|
6,
|
|
,
|
|
,
|
|
00080010,
|
|
2111,
|
|
1025,
|
|
,
|
|
00080000,
|
|
1210,
|
|
1210,
|
|
1110,
|
|
1112,
|
|
3030,
|
|
3030,
|
|
3030,
|
|
3030,
|
|
3333,
|
|
3333,
|
|
#GOGOEND
|
|
0,
|
|
,
|
|
#GOGOSTART
|
|
1110,
|
|
1110,
|
|
1110,
|
|
1110,
|
|
1110,
|
|
1110,
|
|
10101006,
|
|
00000
|
|
#GOGOEND
|
|
000,
|
|
8,
|
|
#END
|
|
|
|
|
|
|
|
COURSE:Easy
|
|
LEVEL:2
|
|
BALLOON:
|
|
SCOREINIT:
|
|
SCOREDIFF:
|
|
NOTESDESIGNER0:Colin
|
|
|
|
|
|
#START
|
|
#BARLINEOFF
|
|
0,
|
|
,
|
|
,
|
|
,
|
|
,
|
|
,
|
|
,
|
|
,
|
|
#GOGOSTART
|
|
#BARLINEON
|
|
1010,
|
|
1010,
|
|
1010,
|
|
1010,
|
|
1010,
|
|
1010,
|
|
1010,
|
|
1010,
|
|
#GOGOEND
|
|
2,
|
|
2,
|
|
2,
|
|
2,
|
|
2,
|
|
2,
|
|
2,
|
|
2,
|
|
5,
|
|
,
|
|
,
|
|
0810,
|
|
1010,
|
|
1010,
|
|
5008,
|
|
1,
|
|
2,
|
|
2,
|
|
2020,
|
|
2,
|
|
2,
|
|
2,
|
|
3,
|
|
3,
|
|
5,
|
|
,
|
|
,
|
|
8,
|
|
#GOGOSTART
|
|
6,
|
|
,
|
|
,
|
|
00080010,
|
|
0101,
|
|
0005,
|
|
,
|
|
00080000,
|
|
1010,
|
|
1010,
|
|
1010,
|
|
1010,
|
|
3030,
|
|
3030,
|
|
3030,
|
|
3030,
|
|
3030,
|
|
3033,
|
|
#GOGOEND
|
|
0,
|
|
,
|
|
#GOGOSTART
|
|
1010,
|
|
1010,
|
|
1010,
|
|
1010,
|
|
1010,
|
|
1010,
|
|
10001006,
|
|
00000
|
|
#GOGOEND
|
|
000,
|
|
8,
|
|
#END
|