Files
Best_of_TJADB/03 VOCALOID/Bug/Bug.tja
T
2023-01-12 16:21:55 -05:00

703 lines
5.6 KiB
Plaintext
Raw Blame History

This file contains ambiguous Unicode characters
This file contains Unicode characters that might be confused with other characters. If you think that this is intentional, you can safely ignore this warning. Use the Escape button to reveal them.
TITLE:Bug
SUBTITLE:--Kairiki bear ft. Nightcord at 25:00 / Project SEKAI COLORFUL STAGE! feat. Hatsune Miku
BPM:186
WAVE:Bug.ogg
OFFSET:-0.041
DEMOSTART:99.395
MAKER:Colin
COURSE:Oni
LEVEL:8
BALLOON:
SCOREINIT:
SCOREDIFF:
NOTESDESIGNER3:Colin
#START
#BARLINEOFF
000000000000
#BARLINEON
1121,
2010201020112021,
2011221120001000,
#GOGOSTART
1000201120102010,
0011201120112010,
10101121,
0011201120112210,
10202121,
0011201120112010,
10201121,
0011201120112000,
#GOGOEND
10101012,
12121020,
10121212,
0010201120112010,
1020102210221020,
1020102210201000,
#SCROLL .8
#BARLINEOFF
10101221,
#BARLINEON
#SCROLL 1
01212121,
1011201010102010,
0010202210221020,
10201121,
0010201010212020,
1020101020221010,
0010202010112000,
1222102010102010,
01211020,
1000222210102010,
01212020,
1000222210201020,
0022102010102000,
1010222210102010,
02112010,
1010202010201022,
#SCROLL 1.1
1011202010112000,
#BARLINEOFF
#SCROLL 1.2
3
#SCROLL 1.3
4
#SCROLL 1.4
3
#SCROLL 1.5
4
#SCROLL 1.6
3
#SCROLL 1
#BARLINEON
020,
#GOGOSTART
1010201020112020,
1011202020112010,
1022102010102010,
1020102000112000,
1010202010112020,
1011201020102010,
11211221,
#BARLINEOFF
#SCROLL 1.1
3
#SCROLL 1
0
#SCROLL 1.2
4
#SCROLL 1
0
#SCROLL 1.3
3
#SCROLL 1
0
#SCROLL 1.4
4
#SCROLL 1
0
#SCROLL 1.5
3
#SCROLL 1
#BARLINEON
0112000,
11201212,
02121121,
2011201010102010,
2011201120112000,
11211121,
1011202210221020,
1020101120201010,
#BARLINEOFF
#SCROLL 1.1
3
#SCROLL 1
0
#SCROLL 1.2
4
#SCROLL 1
0
#SCROLL 1.3
3
#SCROLL 1
0
#SCROLL 1.4
4
#SCROLL 1
0
#SCROLL 1.5
3
#SCROLL 1
#BARLINEON
0112000,
#BARLINEOFF
#SCROLL 1.1
3
#SCROLL 1.2
4
#SCROLL 1.3
3
#SCROLL 1.4
4
#SCROLL 1.5
3
#SCROLL 1
#BARLINEON
0
#GOGOEND
20,
#GOGOSTART
1000201120102010,
0011201120112010,
10101121,
0011201120112210,
#GOGOEND
1000001122221020,
1000
#SCROLL 3
4
#SCROLL 1
00022102010,
1022102012221020,
1011202011211212,
1011201022102010,
1011202010102010,
1011201122102020,
1011202010201222,
101120102111202
#BARLINEOFF
#SCROLL .1
0,
0000000
#SCROLL 3
1,
#SCROLL 1
0000000010112000,
33,
3330,
0,
#SCROLL 1.1
3
#SCROLL 1
0
#SCROLL 1.2
4
#SCROLL 1
0
#SCROLL 1.3
3
#SCROLL 1
0
#SCROLL 1.4
4
#SCROLL 1
#BARLINEON
000112000,
1011202210112010,
2011201020221020,
34004310,
#BARLINEOFF
#SCROLL 1.1
3
#SCROLL 1
0
#SCROLL 1.2
4
#SCROLL 1
0
#SCROLL 1.3
3
#SCROLL 1
0
#SCROLL 1.4
4
#SCROLL 1
0
#SCROLL 1.5
3
#SCROLL 1
#BARLINEON
0112020,
#BARLINEOFF
#SCROLL 1.6
3
#SCROLL 1
0
#SCROLL 1.7
4
#SCROLL 1
0
#SCROLL 1.8
3
#SCROLL 1
0
#SCROLL 1.9
4
#SCROLL 1
0
#SCROLL 2
3
#SCROLL 1
0112000,
#GOGOSTART
#BARLINEON
1010201020112020,
1011202020112010,
1022102010102010,
1020102000112000,
1010202010112020,
1011201020221020,
11211121,
#BARLINEOFF
#SCROLL 1.1
3
#SCROLL 1
0
#SCROLL 1.2
4
#SCROLL 1
0
#SCROLL 1.3
3
#SCROLL 1
0
#SCROLL 1.4
4
#SCROLL 1
0
#SCROLL 1.5
3
#SCROLL 1
#BARLINEON
0112000,
11201212,
0020102012112010,
2011201210102010,
2011201120112000,
10201121,
1011202210221020,
1020101120201010,
#BARLINEOFF
#SCROLL 1.1
3
#SCROLL 1
0
#SCROLL 1.2
4
#SCROLL 1
0
#SCROLL 1.3
3
#SCROLL 1
0
#SCROLL 1.4
4
#SCROLL 1
0
#SCROLL 1.5
3
#SCROLL 1
#BARLINEON
112020,
#BARLINEOFF
#SCROLL 1.6
3
#SCROLL 1.7
4
#SCROLL 1.8
3
#SCROLL 1.9
4
#SCROLL 2
3
#SCROLL 1
#BARLINEON
020,
#BARLINEOFF
#SCROLL 1.1
3
#SCROLL 1.2
3
#SCROLL 1.3
3
#SCROLL 1.4
3,
#SCROLL 1.5
3
#SCROLL 1.6
4
#SCROLL 1.7
3
#SCROLL 1.8
4
#SCROLL 1.9
3
#SCROLL 2
4
#SCROLL 2.1
3
#SCROLL 2.2
4,
#SCROLL 2.3
4
#SCROLL 1
#GOGOEND
210,
#END
COURSE:Hard
LEVEL:8
BALLOON:
SCOREINIT:
SCOREDIFF:
NOTESDESIGNER2:Colin
#START
#BARLINEOFF
0,
#BARLINEON
4344,
3011101010000000,
#GOGOSTART
10201201,
01202020,
10201201,
01202020,
10201201,
01202020,
10201201,
01202020,
#GOGOEND
1111,
1111,
20202202,
02222010,
1111,
1111,
20000002,
0,
1210,
10201012,
10101202,
01111020,
10202021,
01221020,
10201201,
01221020,
30303003,
0,
40404004,
0,
30303003,
0,
1111,
34343000,
34343020,
#GOGOSTART
10201120,
1011101020001010,
20101011,
22220120,
10201120,
1011101020001010,
20101011,
22220020,
10201201,
01121020,
12221202,
1112,
10201202,
10101210,
22222200,
34343020,
34343000,
10201201,
01202020,
10201201,
01202020,
#GOGOEND
1000001022202020,
10201110,
20202222,
10201202,
1111,
10201201,
01221212,
10211212,
01101010,
20000002,
0,
33,
3330,
0,
33330000,
1111,
1111,
22,
34343020,
34343020,
#GOGOSTART
10201120,
1011101020001010,
20101011,
22220120,
10201120,
1011101020001010,
2111,
34343020,
10201201,
01121020,
12221202,
34343020,
10201202,
01101010,
22222200,
34343020,
34343000,
1111,
34343434,
#GOGOEND
4430,
#END
COURSE:Normal
LEVEL:5
BALLOON:15
SCOREINIT:
SCOREDIFF:
NOTESDESIGNER1:Colin
#START
#BARLINEOFF
0,
0,
0,
#BARLINEON
#GOGOSTART
1210,
0222,
1210,
0222,
1210,
0222,
1210,
0222,
#GOGOEND
1,
1,
1,
1,
2,
2,
1,
0,
1212,
12,
10202001,
0,
11,
11,
10000002,
0,
1120,
11,
20202001,
0,
20202001,
0001,
2201,
60000800,
60000800,
#GOGOSTART
1212,
5008,
22,
22220010,
1212,
5008,
1210,
2220,
12,
1110,
22,
2220,
11,
1110,
22,
1110,
1110,
1210,
0222,
1210,
0222,
#GOGOEND
1,
1210,
11,
11,
11,
1210,
11,
11,
1222,
00000002,
0,
33,
3330,
2,
0,
1110,
1110,
33,
3330,
3330,
#GOGOSTART
1212,
5008,
22,
22220010,
1212,
5008,
1210,
2220,
12,
1110,
22,
2220,
11,
1110,
22,
1110,
1110,
7,
0,
#GOGOEND
8110,
#END
COURSE:Easy
LEVEL:4
BALLOON:10
SCOREINIT:
SCOREDIFF:
NOTESDESIGNER0:Colin
#START
#BARLINEOFF
0,
0,
0,
#BARLINEON
#GOGOSTART
11,
0202,
11,
0202,
11,
0202,
11,
0202,
#GOGOEND
1,
0,
1,
0,
2,
0,
1,
0,
11,
1,
12,
1,
11,
1,
10000002,
0,
12,
1,
22,
1,
22,
1,
0,
60000800,
60000800,
#GOGOSTART
11,
5008,
22,
20020010,
1012,
5008,
11,
22,
1,
11,
2,
22,
1,
11,
2,
11,
11,
11,
0202,
11,
0202,
#GOGOEND
1,
1,
1,
1,
1,
11,
1,
11,
1,
0,
0,
33,
3330,
2,
0,
11,
11,
33,
3330,
3330,
#GOGOSTART
1012,
5008,
22,
20020010,
11,
5008,
11,
22,
12,
1,
22,
2,
11,
1,
22,
1,
11,
7,
0,
#GOGOEND
8110,
#END