TITLE:Go-Getters
SUBTITLE:--Calliope Mori / SUICIDE SQUAD ISEKAI
TITLEJA:Go-Getters
SUBTITLEJA:森カリオペ 「異世界スーサイド・スクワッド」より
PREIMAGE:Go Getters.jpg
BGMOVIE:Go Getters.mp4
WAVE:Go Getters.ogg
BPM:128
OFFSET:-1.207
DEMOSTART:69.830
GENRE:アニメ
MAKER:Colin

COURSE:Easy
LEVEL:3
SCOREINIT:
SCOREDIFF:
NOTESDESIGNER0:Colin
#START
,
2,
,
2,
,
1010,
1110,
1,
1,
2022,
2020,
2,
2,
1011,
1010,
1010,
1,
2022,
2020,
2,
1010,
3,
2,
2020,
2,
2022,
2,
1010,
1,
1011,
1010,
1,
2022,
2,
2020,
2,
1,
#GOGOSTART
3010,
1110,
1010,
1,
2020,
2220,
5,
#GOGOEND
800
#GOGOSTART
0000
#GOGOEND
0,
#END

COURSE:Normal
LEVEL:3
SCOREINIT:
SCOREDIFF:
NOTESDESIGNER1:Colin
#START
,
2,
2,
2,
,
1110,
10111000,
1010,
1,
20202220,
2020,
2022,
2,
10101110,
1010,
10001011,
1,
20002022,
2020,
2020,
1010,
3,
2,
2220,
2,
20002022,
2,
1011,
1,
10111010,
1010,
1,
2022,
20000022,
2022,
2,
1,
#GOGOSTART
3110,
10111000,
1110,
1100,
2220,
20222022,
5,
#GOGOEND
800
#GOGOSTART
0000
#GOGOEND
0,
#END

COURSE:Hard
LEVEL:5
BALLOON:15
SCOREINIT:
SCOREDIFF:
NOTESDESIGNER2:Colin
#START
,
1212,
1212,
1212,
0000000030030030,
30000122,
20221212,
10201120,
2010201020222000,
11121220,
12121220,
11101201,
1,
1000200110102000,
10202120,
1000200110102000,
10202120,
1000200110102000,
10202120,
1000200110102000,
1011101020102000,
11222022,
2020200000000011,
11100001,
21212212,
12222022,
22500082,
10201202,
,
1001102010002010,
10201122,
1002200010102000,
10202120,
10201120,
10121022,
10201212,
1001102010000000,
#GOGOSTART
32121013,
3003000000102020,
1100110011001020,
1020202000222020,
1002000020020020,
1002001010201020,
7,
#GOGOEND
800000
#GOGOSTART
00300300
#GOGOEND
30,
#END

COURSE:Oni
LEVEL:8
SCOREINIT:
SCOREDIFF:
NOTESDESIGNER3:Colin
#START
0000000000001212,
1021012012002000,
2021021012021010,
1021012012002000,
0000003040040040,
3002102210202022,
1220101210212022,
1012102210201022,
1210222120121210,
1020201030403022,
1020121210201020,
1010202210201022,
1210121211222020,
3022110201102201,
0120201201102022,
1020122101202201,
2222102040040040,
3022111201102020,
1021020201102021,
2021010101203020,
1222102040040040,
31222022,
1020500000008012,
12500081,
21221212,
1021021012012010,
1021201211012020,
1011201020212010,
100020001000200000100000100200200200000000000000,
3002102110201220,
2012122020202020,
1022102010201022,
1012102012222000,
3002102012011220,
2020221210201022,
1021012012022020,
102101201212
#SCROLL 1.5
4
#SCROLL 1
020,
#GOGOSTART
3012012212012020,
1021012012212010,
1201220122012012,
1020102012112020,
2012012010212020,
2012012020120120,
2222222222222222,
#GOGOEND
100000
#GOGOSTART
30400400
#GOGOEND
40,
#END
