TITLE:SPECIALZ
SUBTITLE:--King Gnu / Jujutsu Kaisen
TITLEJA:SPECIALZ
SUBTITLEJA:King Gnu 「呪術廻戦」より
PREIMAGE:SPECIALZ.jpg
BGMOVIE:SPECIALZ.mp4
WAVE:SPECIALZ.ogg
BPM:117
OFFSET:-0.154
DEMOSTART:51.436
MAKER:Colin & Owata-san

COURSE:Easy
LEVEL:2
SCOREINIT:
SCOREDIFF:
NOTESDESIGNER0:Owata-san
#START
,
1,
1,
1,
1030,
#GOGOSTART
1010,
1020,
1010,
5008,
#GOGOEND
1010,
1040,
1010,
2500,
8202,
00200205,
00000801,
3332,
5,
,
,
,
0800000000000000,
3,
3020,
1033,
#GOGOSTART
1202,
10403035,
00000008,
05000008,
3404,
30200025,
,
8334,
3232,
30203046,
,
0008,
3333,
4444,
3434,
6,
#GOGOEND
8030,
3,
#END

COURSE:Normal
LEVEL:4
SCOREINIT:
SCOREDIFF:
NOTESDESIGNER1:Colin
#START
,
1011,
1010,
1011,
1,
#GOGOSTART
1011,
10111000,
1011,
10111000,
#GOGOEND
2022,
2050,
8022,
2020,
2020,
2011,
1020,
2022,
1020,
10001011,
1210,
2220,
1210,
1110,
11101010,
20222020,
#GOGOSTART
10201101,
1210,
1211,
00111020,
1110,
11101010,
2011,
1011,
20202202,
2110,
1220,
1220,
1210,
10101011,
1010,
1211,
#GOGOEND
0022,
3,
#END

COURSE:Hard
LEVEL:7
SCOREINIT:
SCOREDIFF:
NOTESDESIGNER2:Owata-san
#START
03304030,
12222120,
11222140,
1040401011101000,
03304031,
#GOGOSTART
11210121,
1010201000102011,
11210121,
0030000040003011,
#GOGOEND
1010200011102000,
1110200210205000,
8011101010222020,
11114040,
1010200011102000,
1110200210205000,
8011101010222020,
11114040,
1010200011102000,
1110200210205000,
8011101010222020,
11114040,
3000001010111010,
0000201020222020,
1000101120111010,
30303031,
#GOGOSTART
30403243,
0011102020101020,
0011102020111020,
0011102030303040,
30403243,
0011102020101020,
0011102020111020,
1011102030304000,
30403243,
0011102020101020,
0011102020111020,
1110202030303040,
30403243,
0011102020101020,
0011102020111020,
1011102030304000,
#GOGOEND
3,
3,
#END

COURSE:Oni
LEVEL:8
SCOREINIT:
SCOREDIFF:
NOTESDESIGNER3:Colin
#START
01222010,
1010202022102010,
1010202022102020,
1010202022102020,
1011202021121020,
#GOGOSTART
1011201212102020,
100100100100200000100200102020100000100000200200,
1020202022112012,
1011202021112020,
#GOGOEND
1010201222102011,
100000100000200000100200101010200000200000100000,
1020102022102021,
1011201010222010,
1011201122102022,
100000100100200000200000202020200000200000200200,
1010201110102012,
1011201120222020,
1012121120121111,
2020120120121012,
1011221120121022,
1211121120121120,
1011111020121120,
1011101120121011,
1021101121011112,
2010202021112111,
#GOGOSTART
2010201220120210,
1011202222102021,
1020202011112012,
1011201022111020,
2010201020110120,
1022202222102011,
1020202010102012,
1011202022121020,
2011201220120210,
1111202222102021,
1020202110102012,
1011202022111020,
2011201010110210,
1010202222102021,
1020201210102012,
1011202022111020,
#GOGOEND
1000200022112040,
3,
#END
