TITLE:Brain Rot
SUBTITLE:--Tokyo Manaka feat. Teto Kasane
TITLEJA:ブレインロット
SUBTITLEJA:東京真中 feat. 重音テト
PREIMAGE:Brain Rot.png
BGMOVIE:Brain Rot.mp4
WAVE:Brain Rot.ogg
BPM:135
OFFSET:-0.171
DEMOSTART:91.282
GENRE:ボーカロイド
MAKER:Colin

COURSE:Easy
LEVEL:3
NOTESDESIGNER0:Colin
#START
22,
2220,
22,
2,
11,
1110,
11,
1,
22,
2220,
22,
2,
2,
02,
2,
00022020,
2,
00022025,
,
8,
#GOGOSTART
01010101,
01,
01010101,
01,
02020202,
02,
2,
222
#GOGOEND
0,
#GOGOSTART
01010101,
01,
01010101,
01,
02020202,
02,
2,
2220,
#GOGOEND
00
#GOGOSTART
300011,
1110,
00002022,
2220,
#GOGOEND
00
#GOGOSTART
300011,
1110,
00002022,
2220,
#GOGOEND
2,
0022,
2,
2,
2022,
22,
5,
8,
01010101,
01,
#GOGOSTART
01010101,
01,
02020202,
02,
2,
2220,
#GOGOEND
00
#GOGOSTART
300101,
01,
01010101,
01,
02020202,
02,
2,
222
#GOGOEND
0,
#END

COURSE:Normal
LEVEL:4
NOTESDESIGNER1:Colin
#START
22,
2220,
22,
2,
1110,
10111000,
1110,
10111000,
20002022,
2220,
2220,
2220,
2,
00022020,
2,
00022022,
2,
00022225,
,
8,
#GOGOSTART
01010101,
01101000,
01010101,
01111000,
02020222,
02002020,
2,
222
#GOGOEND
0,
#GOGOSTART
01010111,
01101000,
01010111,
0110,
02020222,
02022020,
2,
20222000,
#GOGOEND
00
#GOGOSTART
301011,
10111010,
00202022,
2220,
#GOGOEND
00
#GOGOSTART
301111,
1110,
00202022,
2220,
#GOGOEND
2,
0022,
2,
2,
2022,
22,
5,
8,
01010101,
01101000,
#GOGOSTART
01010101,
01101000,
02020202,
02022000,
2,
2222,
#GOGOEND
00
#GOGOSTART
300101,
01101000,
01010111,
01101000,
02020222,
02022020,
2002,
202220
#GOGOEND
20,
#END

COURSE:Hard
LEVEL:5
NOTESDESIGNER2:Colin
#START
2000000000100100,
1000000000200200,
2000000000100100,
10002120,
10200220,
10200120,
10200120,
10200220,
12101210,
12121212,
20000122,
01220010,
30202002,
02000000,
10202002,
02022222,
10202012,
02012225,
,
8,
#GOGOSTART
12010121,
01222000,
01020102,
02222000,
01020102,
0020001020102220,
10000121,
012100
#GOGOEND
20,
#GOGOSTART
12010121,
01222000,
01020102,
02222000,
01020102,
0020001020102220,
10000121,
01210020,
#GOGOEND
00
#GOGOSTART
212010,
20101120,
00201021,
20112210,
#GOGOEND
00
#GOGOSTART
212011,
20101210,
00212011,
20101212,
#GOGOEND
1202,
0202,
0202,
0202,
0202,
00202225,
,
8,
12010121,
01222000,
#GOGOSTART
01020102,
02222000,
01020102,
0020001020102220,
10000121,
01210020,
#GOGOEND
12
#GOGOSTART
010121,
01222000,
01020102,
02222000,
01020102,
0020001020102220,
10000121,
012100
#GOGOEND
20,
#END

COURSE:Oni
LEVEL:8
BALLOON:1
NOTESDESIGNER3:Colin
#START
100000200010000000100000100000200100000010000000,
100000100200100000200000100000200000100020000020,
100000200010000000100000100000200100000010000000,
1012102040104000,
3010201110102020,
100000100100200000100000200010000100200000100020,
1010201110102020,
100000100100200000100000200010000100200000100020,
100201200100101001200102,
100201200200102001202202,
100201200200100201200100,
102002200201201101202200,
10201012,
02012220,
00201021,
02012221,
00102012,
01012225,
,
8212,
#GOGOSTART
300201001200100200100200,
100201100200101002200101,
100200101001100200100201,
100200100200100102100201,
100100200101100100200100,
100100200101100100200100,
100101200100100201200100,
100202100100400100
#GOGOEND
400000,
#GOGOSTART
300101200200100201200101,
100201200200102201202201,
100201200200100202201001,
102201201101102201201102,
100201200200100101200200,
100202200202101202101201,
100100200101100201200200,
102201202201201110201200,
#GOGOEND
#SCROLL 7.4
60000080
#SCROLL 1
0000
#GOGOSTART
300000100100200010000010200000200000,
100200201201102202201201,
101001200200100101200200,
102201200200101001201200,
#GOGOEND
#SCROLL 7.4
00
#SCROLL 1
0000200000
#GOGOSTART
#SCROLL 2
30
#SCROLL 1
0000100100200010000010200000200000,
100200201201102202201201,
101001200200100101200200,
100020200010200000100200100200100200100200100000,
#GOGOEND
30201012,
02012220,
10201012,
02012221,
01102012,
02012222,
5,
8,
1212,
100000200200102101101102,
#GOGOSTART
100201200100101001201001,
102200201002102200201200,
100201200100101001201001,
102200201002102200201200,
100102200100101002200200,
102201200200201100400000,
#GOGOEND
#SCROLL 4
780
#SCROLL 2
000
#GOGOSTART
3
#SCROLL 1
00200100201200101,
100201200200102201202201,
100201200200100202201001,
102201201101102201201102,
100201200200100101200200,
100202200202101202101201,
100100200101100201200200,
102201202201201110
#GOGOEND
000000,
#END
