TITLE:CLAMPDOWN
SUBTITLE:--aleon & Cmyth feat. Hatsune Miku
TITLEJA:CLAMPDOWN
SUBTITLEJA:aleon、 Cmyth feat. 初音ミク
PREIMAGE:CLAMPDOWN.jpg
BGMOVIE:CLAMPDOWN.mp4
WAVE:CLAMPDOWN.ogg
BPM:128
OFFSET:-15.197
DEMOSTART:53.634
GENRE:ボーカロイド
MAKER:Colin

COURSE:Easy
LEVEL:4
NOTESDESIGNER0:Colin
#START
20000002,
00000002,
00000002,
,
20000002,
,
2,
,
30001011,
1110,
1011,
1,
22,
2220,
2022,
5,
8,
,
,
#MEASURE 6/4
003300,
#MEASURE 4/4
#GOGOSTART
3011,
1110,
11,
1111,
11,
1111,
11,
111
#GOGOEND
0,
#GOGOSTART
2022,
2220,
22,
222
#GOGOEND
2,
#GOGOSTART
22,
20222020,
22,
2033,
#GOGOEND
3,
0044,
,
0044,
00020202,
,
00020202,
,
3
#GOGOSTART
010,
1110,
1011,
1,
11,
1110,
1011,
1,
#GOGOEND
3,
2,
,
2,
,
5,
,
08,
31,
1110,
11,
#MEASURE 6/4
103300,
#MEASURE 4/4
#GOGOSTART
3011,
1110,
11,
1111,
11,
1111,
11,
11
#GOGOEND
10,
#GOGOSTART
2022,
222
#GOGOEND
0,
#GOGOSTART
22,
222
#GOGOEND
2,
#GOGOSTART
22,
20222020,
22,
2033,
#GOGOEND
3,
20020020,
2,
20000200,
2,
20020020,
2,
#END

COURSE:Normal
LEVEL:4
NOTESDESIGNER1:Colin
#START
20000002,
00000002,
00000002,
,
20000002,
,
2,
,
30101011,
10111000,
10111010,
11,
2220,
2220,
20222020,
5,
8,
22,
2,
#MEASURE 6/4
003300,
#MEASURE 4/4
#GOGOSTART
30001011,
1110,
10101110,
1111,
11,
10101110,
11,
111
#GOGOEND
0,
#GOGOSTART
2022,
22202000,
2022,
202022
#GOGOEND
20,
#GOGOSTART
22,
20222020,
22,
2033,
#GOGOEND
31,
1044,
,
1044,
00020202,
0011,
00020202,
,
30
#GOGOSTART
001011,
1110,
10001011,
1110,
10001011,
1110,
10101011,
1110,
#GOGOEND
3,
2,
,
2,
,
5,
,
08,
31,
1110,
11,
#MEASURE 6/4
103300,
#MEASURE 4/4
#GOGOSTART
30001011,
1110,
10101110,
1111,
11,
10101110,
11,
11
#GOGOEND
10,
#GOGOSTART
2022,
222020
#GOGOEND
00,
#GOGOSTART
2022,
202022
#GOGOEND
20,
#GOGOSTART
22,
20222020,
22,
2033,
#GOGOEND
3,
20020020,
2,
20000200,
2,
20020020,
2,
#END

COURSE:Hard
LEVEL:6
BALLOON:8
NOTESDESIGNER2:Colin
#START
0220,
10221020,
1212,
10201120,
00201021,
21201010,
10002003,
03030000,
30202012,
12102000,
01102011,
20121000,
1001001020000000,
1001001020000000,
1001002020020010,
5008,
30212011,
22121012,
20122012,
#MEASURE 6/4
103300,
#MEASURE 4/4
#GOGOSTART
3000200200102011,
11223030,
30201120,
10201210,
12201222,
12101212,
11201122,
133
#GOGOEND
3,
#GOGOSTART
30201120,
1011001020204000,
1011001010111000,
122034
#GOGOEND
30,
#GOGOSTART
30201120,
1020100202203000,
30201120,
1020202010001100,
#GOGOEND
30221022,
10223030,
30221022,
10123030,
30220202,
10213030,
30220202,
10213030,
3000
#GOGOSTART
200010202202,
0010200010222020,
1000200010102011,
11201140,
30201120,
1000201000102011,
1000201110102000,
1011101070000000,
#GOGOEND
82,
2,
02,
2,
02,
5,
,
08,
30212011,
22121012,
20122012,
#MEASURE 6/4
103300,
#MEASURE 4/4
#GOGOSTART
3000200200102011,
11223030,
30201120,
10201210,
12201222,
12101212,
11201122,
13
#GOGOEND
33,
#GOGOSTART
30201120,
101020222000
#GOGOEND
4000,
#GOGOSTART
1011001010111000,
122034
#GOGOEND
30,
#GOGOSTART
30201120,
12100000,
30201120,
12223030,
#GOGOEND
3,
2000002000020000,
2,
20000200,
2,
20020020,
2,
#END

COURSE:Oni
LEVEL:8
BALLOON:24
NOTESDESIGNER3:Colin
#START
30202012,
12212012,
21122020,
10101210,
10202021,
22112012,
12212003,
03030020,
2012002011012020,
1011012010201022,
1022011010201020,
1011102010112010,
1011012020112010,
1012011020112010,
1002001010020010,
50805008,
3000201020001022,
12122012,
1022202010001020,
#MEASURE 6/4
1020202030003000
#SCROLL 7.80469
60008
#SCROLL 1
000,
#MEASURE 4/4
#GOGOSTART
3022101202201012,
0122112030203020,
3020202212112020,
1011202030201220,
3021201010112020,
1012202030203020,
3011202012102020,
100000100000200000100100200000100000
#GOGOEND
200020002000,
#GOGOSTART
1012022020112010,
2021022020104000,
3012022010212010,
101020221020
#GOGOEND
#SCROLL 2
2
#SCROLL 1
000,
#GOGOSTART
#SCROLL 2.5
3
#SCROLL 1
011202010102012,
2201200202103020,
3011201210221020,
1010201020002200,
#GOGOEND
30121012,
10123030,
30121012,
10123030,
3000202011012010,
10223232,
3000201010112010,
100000000000200000100000400000202020100100200200,
1000
#GOGOSTART
#SCROLL 2
40
#SCROLL 1
0012021202,
0212111202120202,
0211210201212202,
0212120201020212,
1112020102120201,
0122020102110211,
1021211121112111,
7,
#GOGOEND
82,
5,
82,
5,
80022000,
5,
,
80201212,
3021011012202012,
1021011011212210,
1021011010212010,
#MEASURE 6/4
1020102030003000
#SCROLL 7.80469
60008
#SCROLL 1
000,
#MEASURE 4/4
#GOGOSTART
3022101202201012,
0122112030203020,
3020202212112020,
1011202030201220,
3021201010112020,
1012202030203020,
3011202012102020,
1121
#GOGOEND
3030,
#GOGOSTART
3012022020112010,
100020001000000200200000200000100000
#GOGOEND
300000000000,
#GOGOSTART
3012020210212010,
101102021020
#GOGOEND
#SCROLL 2
1
#SCROLL 1
000,
#GOGOSTART
#SCROLL 2.5
3
#SCROLL 1
011202012010112,
2200120002120020,
1101020210221020,
11213230,
#GOGOEND
2,
20020020,
2,
20000200,
2,
20020020,
2,
#END
