TITLE:IITAI
SUBTITLE:--isidore. feat. GUMI
TITLEJA:IITAI
SUBTITLEJA:isidore. feat. GUMI
PREIMAGE:IITAI.jpg
BGMOVIE:IITAI.mp4
WAVE:IITAI.ogg
BPM:180
OFFSET:-0.490
DEMOSTART:65.489
GENRE:ボーカロイド
MAKER:Colin

COURSE:Easy
LEVEL:3
NOTESDESIGNER0:Colin
#START
,
#GOGOSTART
11,
1,
1011,
1,
22,
2,
2022,
2,
11,
1,
1011,
1,
22,
2,
2022,
2,
#GOGOEND
00100001,
00000001,
00001001,
00000105,
,
08,
,
,
00200002,
00000002,
00002002,
00002005,
,
08,
10010005,
08,
2,
,
2002,
,
20000022,
00000025,
0008,
,
20020020,
,
2,
20002005,
,
08,
1,
1,
#GOGOSTART
31,
1,
1011,
11,
1,
,
33,
33,
3,
,
20000002,
00002025,
08,
20020205,
00000800,
40040040,
#GOGOEND
0,
,
,
,
,
,
,
,
#GOGOSTART
40040040,
0044,
40040040,
0044,
40040040,
0044,
40040040,
000000004000000
#GOGOEND
0,
#GOGOSTART
30030030,
0033,
30030030,
0033,
30030030,
0033,
30030030,
0000303
#GOGOEND
0,
#GOGOSTART
10
#GOGOEND
1
#GOGOSTART
10
#GOGOEND
0
#GOGOSTART
10,
#GOGOEND
0
#GOGOSTART
100101
#GOGOEND
0,
#GOGOSTART
10
#GOGOEND
1
#GOGOSTART
10
#GOGOEND
0
#GOGOSTART
10,
#GOGOEND
1
#GOGOSTART
001010
#GOGOEND
5,
#GOGOSTART
00
#GOGOEND
0
#GOGOSTART
00
#GOGOEND
0
#GOGOSTART
00,
#GOGOEND
0
#GOGOSTART
000800
#GOGOEND
0,
#GOGOSTART
50
#GOGOEND
0
#GOGOSTART
00
#GOGOEND
0
#GOGOSTART
00,
#GOGOEND
0
#GOGOSTART
0000000,
#MEASURE 5/4
800000000
#GOGOEND
0,
#END

COURSE:Normal
LEVEL:4
NOTESDESIGNER1:Colin
#START
,
#GOGOSTART
1011,
1,
10001011,
1,
2022,
2,
20002022,
2,
1011,
1,
10001011,
1,
2022,
2,
20002022,
2,
#GOGOEND
00101001,
00000001,
00101001,
00010105,
,
08,
,
,
00200002,
02020002,
00202002,
02020205,
,
08,
10110105,
08,
2002,
02,
2002,
00020222,
20000022,
00000025,
0008,
02,
20020220,
02,
2,
20202005,
,
08,
1,
1,
#GOGOSTART
30011010,
11,
10111010,
1011,
10001001,
01,
33,
33,
3,
,
20020202,
00202025,
08,
20020205,
00000800,
40040040,
#GOGOEND
0,
,
,
,
10010010,
00002022,
2,
,
#GOGOSTART
40040040,
0044,
40040040,
0044,
40040040,
0044,
40040040,
000000004000000
#GOGOEND
0,
#GOGOSTART
30030030,
0033,
30030030,
0033,
30030030,
0033,
30030030,
0000303
#GOGOEND
0,
#GOGOSTART
10
#GOGOEND
1
#GOGOSTART
10
#GOGOEND
1
#GOGOSTART
10,
#GOGOEND
1
#GOGOSTART
100101
#GOGOEND
0,
#GOGOSTART
11
#GOGOEND
1
#GOGOSTART
10
#GOGOEND
0
#GOGOSTART
11,
#GOGOEND
1
#GOGOSTART
101010
#GOGOEND
5,
#GOGOSTART
00
#GOGOEND
0
#GOGOSTART
00
#GOGOEND
0
#GOGOSTART
00,
#GOGOEND
0
#GOGOSTART
000800
#GOGOEND
0,
#GOGOSTART
50
#GOGOEND
0
#GOGOSTART
00
#GOGOEND
0
#GOGOSTART
00,
#GOGOEND
0
#GOGOSTART
0000000,
#MEASURE 5/4
800000000
#GOGOEND
0,
#END

COURSE:Hard
LEVEL:6
NOTESDESIGNER2:Colin
#START
,
#GOGOSTART
30201120,
10210120,
10201120,
10210120,
10201120,
10210120,
10201120,
10210122,
10201120,
10210120,
10201120,
10210120,
10201120,
10210120,
10201120,
12012010,
#GOGOEND
30200120,
10200120,
10200120,
1000200010222020,
10210121,
10201120,
10210120,
1000201010222020,
30200120,
10200120,
10200120,
1000200010222020,
10210121,
10201120,
10210121,
0010201010222020,
32,
1120,
10012010,
12112210,
12,
1120,
10012010,
12112210,
12,
1120,
10012010,
12112211,
32,
20002002,
5000000000000800,
5008,
#GOGOSTART
30201121,
01201120,
10201121,
01201120,
10201121,
0010200011102000,
31203120,
3011102030222020,
30210121,
01201120,
10210121,
01201120,
10201121,
01201120,
10201121,
1020001120001000,
#GOGOEND
40220220,
22022020,
20220220,
22022020,
30110110,
11011010,
10110110,
11011010,
#GOGOSTART
30120120,
1020111020101000,
30120120,
1020111020102000,
30120120,
1020111020101000,
30120120,
102011102010200
#GOGOEND
0,
#GOGOSTART
30120120,
12212020,
11210120,
12011222,
10210120,
12011222,
10210120,
10200010222020
#GOGOEND
20,
#GOGOSTART
11
#GOGOEND
1
#GOGOSTART
20
#GOGOEND
1
#GOGOSTART
20,
#GOGOEND
10
#GOGOSTART
200010201110
#GOGOEND
10,
#GOGOSTART
11
#GOGOEND
1
#GOGOSTART
20
#GOGOEND
1
#GOGOSTART
20,
#GOGOEND
10
#GOGOSTART
200010201110
#GOGOEND
10,
#GOGOSTART
50
#GOGOEND
0
#GOGOSTART
00
#GOGOEND
0
#GOGOSTART
00,
#GOGOEND
0
#GOGOSTART
000008
#GOGOEND
0,
#GOGOSTART
50
#GOGOEND
0
#GOGOSTART
00
#GOGOEND
0
#GOGOSTART
00,
#GOGOEND
0
#GOGOSTART
0000080,
#MEASURE 5/4
333300333
#GOGOEND
3,
#END

COURSE:Oni
LEVEL:8
NOTESDESIGNER3:Colin
#START
2000200010122010,
#GOGOSTART
3000201210102020,
1000201110102010,
1000201210102022,
1010201110102012,
1020201210102010,
1010201110102010,
1000201210102000,
1010201110212011,
1011201210102011,
1010201110102010,
1010201210102022,
1010201110102012,
1010201210102010,
1011201110102010,
1010201210102010,
1020101120101020,
#GOGOEND
30211021,
01210121,
0010201110102010,
0010201012202012,
1000201110102012,
1010201211102000,
1010201110102010,
1011201021202211,
10211021,
0010201011102010,
0010201110102010,
0010201012202012,
1000201110102012,
1010201211102000,
1010201110102010,
1020121120111010,
1000100020000022,
12012010,
1000100020000022,
1020001020221020,
1000100020000022,
12012010,
1000100020000022,
1020001020221111,
1000100020000022,
12012010,
1000100020000022,
1020001020221020,
32,
22,
3000222222222222,
1021201122112000,
#GOGOSTART
#SCROLL 1.3
3
#SCROLL 1
000201211102030,
0010201210102011,
1000201110102030,
0010202210102012,
1000200010112030,
0010201212102020,
3011201030222210,
3022202030112210,
3000201110102030,
0030201120102012,
1000202210102030,
0010201210102020,
1000201210102011,
11210125,
0000000080002012,
1020001120103000,
#GOGOEND
3000102011102000,
1021201120202000,
1000102000112000,
1021201022202010,
1000102011102000,
1021201120202000,
1000102000112000,
1021201022202010,
#GOGOSTART
#SCROLL 1.1
3022202011102011,
1021201020112010,
3022202011102011,
1021201020112010,
3022202011102011,
1021201020112010,
3022202011102011,
102120102011221
#GOGOEND
1,
#GOGOSTART
#SCROLL 1.2
1011102012112010,
1021201120202211,
1011102011112012,
1021201120221212,
1011102012112010,
1021201120202211,
1011102011112012,
10212011202210
#GOGOEND
20,
#GOGOSTART
#SCROLL 1.3
3011
#GOGOEND
20
#GOGOSTART
3022
#GOGOEND
20
#GOGOSTART
3021,
#GOGOEND
20
#GOGOSTART
302011202011
#GOGOEND
20,
#GOGOSTART
3011
#GOGOEND
20
#GOGOSTART
3022
#GOGOEND
20
#GOGOSTART
3021,
#GOGOEND
20
#GOGOSTART
302011202211
#GOGOEND
11,
#GOGOSTART
1011
#GOGOEND
20
#GOGOSTART
3022
#GOGOEND
20
#GOGOSTART
3021,
#GOGOEND
20
#GOGOSTART
302011202011
#GOGOEND
20,
#GOGOSTART
3011
#GOGOEND
20
#GOGOSTART
3022
#GOGOEND
20
#GOGOSTART
3021,
#GOGOEND
20
#GOGOSTART
30221120202010,
#MEASURE 5/4
#SCROLL 1.3
3
#SCROLL 1.26667
3
#SCROLL 1.23333
3
#SCROLL 1.2
300
#SCROLL 1.1
3
#SCROLL 1.06667
3
#SCROLL 1.03333
3
#GOGOEND
#SCROLL 1
3,
#END
