TITLE:Layer Note
SUBTITLE:--Yoshiyuki Yoshida feat. Miku Hatsune
TITLEJA:レイヤーノート
SUBTITLEJA:吉田ヨシユキ feat. 初音ミク
PREIMAGE:Layer Note.png
BGMOVIE:Layer Note.mp4
WAVE:Layer Note.ogg
BPM:78
OFFSET:-0.033
DEMOSTART:56.956
GENRE:ボーカロイド
MAKER:Colin

COURSE:Easy
LEVEL:1
SCOREINIT:
SCOREDIFF:
NOTESDESIGNER0:Colin
#START
#SCROLL 1.6
0,
,
1011,
50080000,
3330,
#GOGOSTART
10101110,
1110,
#GOGOEND
2
#GOGOSTART
0202000,
2220,
#GOGOEND
1010,
1,
1010,
1,
#MEASURE 3/4
202,
#MEASURE 4/4
2020,
#MEASURE 3/4
202,
#MEASURE 4/4
2020,
2022,
2,
#GOGOSTART
3110,
1110,
5008,
111
#GOGOEND
0,
#GOGOSTART
30101110,
1011,
5008,
5008,
#MEASURE 3/4
#GOGOEND
444,
,
#MEASURE 4/4
#GOGOSTART
3110,
10101110,
1011,
1000000
#GOGOEND
0,
#GOGOSTART
2022,
2020,
2022,
2000000
#GOGOEND
0,
#GOGOSTART
10101110,
1010,
1110,
1110,
#GOGOEND
2,
#END

COURSE:Normal
LEVEL:2
SCOREINIT:
SCOREDIFF:
NOTESDESIGNER1:Colin
#START
#SCROLL 1.6
0,
,
10001011,
50080000,
3330,
#GOGOSTART
10111110,
1110,
#GOGOEND
2
#GOGOSTART
0202220,
2220,
#GOGOEND
1012,
1001,
11001000,
1210,
#MEASURE 3/4
202220,
#MEASURE 4/4
20200022,
#MEASURE 3/4
200022,
#MEASURE 4/4
2020,
20022020,
2,
#GOGOSTART
30111010,
10111000,
5008,
101011
#GOGOEND
10,
#GOGOSTART
30111110,
10101011,
5008,
5008,
#MEASURE 3/4
#GOGOEND
444,
,
#MEASURE 4/4
#GOGOSTART
30111010,
10111110,
10101110,
1010100
#GOGOEND
0,
#GOGOSTART
20222020,
20002022,
20202220,
2000000
#GOGOEND
0,
#GOGOSTART
10111110,
1110,
10101110,
1110,
#GOGOEND
2,
#END

COURSE:Hard
LEVEL:4
SCOREINIT:
SCOREDIFF:
NOTESDESIGNER2:Colin
#START
#SCROLL 1.6
0,
2220,
100100200001100100200000,
500008000000,
3330,
#GOGOSTART
300000200001101000200000,
100100200001101000200000,
#GOGOEND
000
#GOGOSTART
100200001101000200000,
100100200001101000200000,
#GOGOEND
1212,
1212,
100100000001101000000000,
100100000001101000000000,
#MEASURE 3/4
100000200001100000,
#MEASURE 4/4
100000200001101000000000,
#MEASURE 3/4
100100200000101000,
#MEASURE 4/4
100100200001101000000000,
100100200000101001100002,
001100001101000000000000,
#GOGOSTART
31201121,
01221212,
50000800,
121212
#GOGOEND
00,
#GOGOSTART
30201121,
01212122,
50000802,
12121210,
#MEASURE 3/4
#GOGOEND
333,
111110,
#MEASURE 4/4
#GOGOSTART
300000200001100100200000,
100100200001100100200000,
12121211,
000100200001100100200
#GOGOEND
000,
#GOGOSTART
100000200001100100200000,
11201210,
10201210,
1122121
#GOGOEND
2,
#GOGOSTART
100000200001100100200000,
100100200001101000200000,
100000200001100100200000,
100100200001101000200200,
#GOGOEND
2210,
#END

COURSE:Oni
LEVEL:7
SCOREINIT:
SCOREDIFF:
NOTESDESIGNER3:Colin
#START
#SCROLL 1.6
0,
2210,
100100200001100100200001,
11200000,
32323000,
#GOGOSTART
300201002202111200211200,
100201002201202100201000,
#GOGOEND
000
#GOGOSTART
#SCROLL 3
4
#SCROLL 1.6
01002202111200211200,
100201002201202100201000,
#GOGOEND
100112201102202000101102,
202001202202102000100012,
100112202102202000101101,
202001100102202010100200,
#MEASURE 3/4
300102202201211101,
#MEASURE 4/4
201202200202102000200000,
#MEASURE 3/4
100102201201201100,
#MEASURE 4/4
101200102201102000200000,
100100202002102002202202,
001101001101000000000000,
#GOGOSTART
300100202202100100200101,
101101202200100200200200,
100100200101100100202002,
102201200102100200
#GOGOEND
200000,
#GOGOSTART
300101200101200100200101,
101202202201102102100100,
101202100202200100202002,
101201201102100211201200,
#MEASURE 3/4
#GOGOEND
323232,
300000100000100000100000100100101010,
#MEASURE 4/4
#GOGOSTART
100100202202100100200101,
100202202202100200202200,
100102201101200100200100,
102201201102100200202
#GOGOEND
200,
#GOGOSTART
300100202101200100200101,
101202202201102102101200,
100201200201200100200102,
101201201102101000201
#GOGOEND
200,
#GOGOSTART
301201202201201102200100,
101102202201101202201200,
100102202201101201200100,
100101201101101201201222,
#GOGOEND
2210,
#END
