TITLE:Forgery
SUBTITLE:--Yupsilon
TITLEJA:フォージェリィ
SUBTITLEJA:ユプシロン
PREIMAGE:Forgery.png
BGMOVIE:Forgery.mp4
WAVE:Forgery.ogg
BPM:175
OFFSET:-1.059
DEMOSTART:32.601
MAKER:Colin

COURSE:Easy
LEVEL:3
SCOREINIT:
SCOREDIFF:
NOTESDESIGNER0:Colin
#START
,
3,
,
#GOGOSTART
4020,
2,
2020,
2,
#GOGOEND
3,
1,
3,
1,
3,
1,
3,
1,
2020,
2,
2220,
2,
2020,
2220,
2011,
1,
#GOGOSTART
4010,
1110,
2010,
1110,
2010,
1110,
2010,
2222,
1020,
1110,
2010,
1110,
1,
3040,
1010,
1,
2020,
2,
#GOGOEND
0,
2022,
2010,
1,
1110,
1010,
1,
1111,
00000001,
00001001,
00001001,
00001001,
00000002,
00002002,
00002002,
,
4,
4,
3,
6,
0
#GOGOSTART
000,
8020,
2,
1010,
#MEASURE 8/4
100000000000000
#GOGOEND
0
#SCROLL 0.7
0000000000000000,
22,
22,
22,
21,
#MEASURE 4/4
#SCROLL 1
3,
#GOGOSTART
#SCROLL 1.3
4010,
1110,
2010,
1110,
2010,
1110,
2010,
2222,
1020,
1110,
2010,
1110,
1,
3040,
1010,
1,
2020,
2,
1010,
1110,
1010,
10000010000
#GOGOEND
0000000000000,
#END

COURSE:Normal
LEVEL:5
SCOREINIT:
SCOREDIFF:
NOTESDESIGNER1:Colin
#START
,
3,
,
#GOGOSTART
4020,
2220,
2020,
2220,
#GOGOEND
3010,
1010,
3010,
1010,
3010,
1010,
3010,
1,
2020,
2220,
2220,
20222000,
2020,
2220,
2011,
1,
#GOGOSTART
40001011,
1110,
2010,
10111000,
2010,
1110,
2010,
2222,
10112000,
10111000,
2010,
10111000,
1,
3040,
10111010,
1010,
20222020,
2020,
#GOGOEND
0,
2022,
2010,
10111000,
1110,
1010,
1,
1111,
00000001,
00111001,
00111001,
00111001,
00000002,
00222002,
00222002,
00002220,
4,
4,
3,
6,
0
#GOGOSTART
000,
8020,
20001111,
1011,
#MEASURE 8/4
100000002000000
#GOGOEND
0
#SCROLL 0.7
0000000000000000,
20202000,
20202000,
20002020,
21,
#MEASURE 4/4
#SCROLL 1
3,
#GOGOSTART
#SCROLL 1.3
40001011,
1110,
20001011,
1110,
20001011,
1110,
2010,
2222,
1020,
11101000,
20001011,
1110,
1010,
3040,
10001011,
1110,
20002022,
2020,
10001011,
1110,
1010,
10000010000
#GOGOEND
0000000000000,
#END

COURSE:Hard
LEVEL:7
SCOREINIT:
SCOREDIFF:
NOTESDESIGNER2:Colin
#START
00000202,
30221212,
21202020,
#GOGOSTART
21201120,
10201120,
10201120,
10201120,
#GOGOEND
20211122,
21120202,
22221202,
22010221,
10211222,
20221202,
11212122,
12112200,
1000111022201020,
1110111022201020,
1020102011102200,
11220221,
0011102010202020,
0022201110202020,
30330303,
,
#GOGOSTART
40140221,
12110222,
11120212,
12210102,
22220212,
12121102,
10222222,
21120222,
40140221,
12110112,
21122212,
12210202,
10221010,
30334040,
10201120,
10201120,
10201120,
10201122,
#GOGOEND
20000202,
20112212,
10211101,
22211221,
11210121,
10212221,
10212202,
22122124,
00000001,
0011102220102010,
0010222020102010,
2010201110202020,
02222201,
01212222,
0200111020202020,
0020222022202010,
20120202,
10220202,
10110111,
5,
0
#GOGOSTART
000,
80201120,
1212,
10201120,
#MEASURE 8/4
100020201010202
#GOGOEND
0
#SCROLL 0.7
0000000000000000,
2222222222220222,
2222222222220202,
2222022222222202,
0002222222020000,
#MEASURE 4/4
#SCROLL 1
33000000,
#GOGOSTART
#SCROLL 1.3
40140221,
12110222,
11120212,
12210102,
22220212,
12121102,
10222222,
21120222,
40140221,
12110222,
11120212,
12210102,
2112,
30443040,
10201120,
10201120,
10201120,
10201122,
20102210,
20102210,
20102210,
2000000000002000000000
#GOGOEND
40000000040000000040000000,
#END

COURSE:Oni
LEVEL:9
SCOREINIT:
SCOREDIFF:
NOTESDESIGNER3:Colin
#START
00000202,
3000202010201011,
21212040,
#GOGOSTART
4020101211202112,
2102111122120112,
1020101111202212,
1102111211222222,
#GOGOEND
2000201120102030,
2211111120112210,
4011202220201030,
2030221122112210,
3010221120102011,
2011201122112010,
2011201120102011,
2011201122112022,
1000121122212020,
1022221112112020,
1022102011112202,
1020221120112010,
2011202010222022,
1011202210202020,
400000200000200000200000200200200200202020202020,
2,
#GOGOSTART
4011201020111010,
2010202210102010,
2011201020112010,
2011201110121010,
2011201020112010,
2010201110102011,
2010210120102020,
1020112010221121,
2011201021012010,
2011201110102011,
2010201120102022,
2010221120102010,
2011201020112020,
3000404040002222,
1020101211202112,
2102111122120112,
1020101111202212,
1102111211222222,
#GOGOEND
20000202,
2020101120201010,
1021221022112010,
2020202210102010,
1010221122112020,
3000201120102030,
2030201122112010,
2020101020101120,
0000001120300040,
0010201121202040,
0010121021202040,
0020102020212040,
0040101020112030,
0010202210202040,
0010201121202030,
0020121121202010,
2011201022112022,
1010201020112010,
2011201020222222,
1003003020020020,
1011
#GOGOSTART
201020110222,
1012012210112111,
2012012010221122,
1011021020112211,
#MEASURE 8/4
202010102211222
#GOGOEND
2
#SCROLL 0.7
0000000000202020,
2212222222210112,
20202020202020201010201000100011,
20112022201120111010201120112011,
200000111222200000000000,
#MEASURE 4/4
#SCROLL 1
33202020,
#GOGOSTART
#SCROLL 1.3
4011201020111010,
2010202210102010,
2011201020112010,
2011201110121010,
2011201020112010,
2010201110102011,
2010210120102020,
1020112010221121,
2011201021012010,
2011201110102011,
2010201120102022,
2010221120102010,
2011201020112020,
3000404040002222,
1020101211202112,
2102111122120112,
1020101111202212,
1102111211222222,
2000101211202112,
2102111210110211,
2010201111202212,
1001000002001001002000
#GOGOEND
40000000040000000040000000,
#END
