TITLE:Recollect
SUBTITLE:--Konomi Suzuki feat. Ashnikko / Re:Zero -Starting Life in Another World-
TITLEJA:Recollect
SUBTITLEJA:鈴木このみ feat. Ashnikko 「Re:ゼロから始める異世界生活」より
PREIMAGE:Recollect.jpg
BGMOVIE:Recollect.mp4
WAVE:Recollect.ogg
BPM:145
OFFSET:-0.954
DEMOSTART:46.264
GENRE:アニメ
MAKER:Colin

COURSE:Easy
LEVEL:5
NOTESDESIGNER0:Colin
SCOREDIFF:
SCOREINIT:
#START
30010050,
,
8,
3434,
3110,
1000000010010010,
1011,
1,
4220,
2000000020020020,
25,
8,
30011001,
10011000,
20202220,
20222000,
30011001,
10011000,
20202220,
2220,
#GOGOSTART
3
#GOGOEND
00
#GOGOSTART
3
#GOGOEND
00
#GOGOSTART
3
#GOGOEND
0,
00
#GOGOSTART
30
#GOGOEND
0000
#GOGOSTART
30
#GOGOEND
0
#GOGOSTART
00
#GOGOEND
0
#GOGOSTART
00,
#GOGOEND
#GOGOSTART
3
#GOGOEND
00
#GOGOSTART
3
#GOGOEND
00
#GOGOSTART
3
#GOGOEND
0,
0
#GOGOSTART
3
#GOGOEND
003030,
40002220,
20200220,
30303333,
,
#GOGOSTART
3110,
10111010,
1110,
1,
22200025,
00008022,
02000022,
0202000
#GOGOEND
3,
#GOGOSTART
3
#GOGOEND
0
#GOGOSTART
301000,
1015080
#GOGOEND
4,
#GOGOSTART
4
#GOGOEND
0
#GOGOSTART
402022,
2020200
#GOGOEND
3,
#GOGOSTART
3
#GOGOEND
0
#GOGOSTART
301000,
10110000,
444
#GOGOEND
0,
#GOGOSTART
3333,
#MEASURE 1/32
#GOGOEND
#SCROLL 1
3,
#SCROLL 2.32
0,
#SCROLL 2.36
0,
#SCROLL 2.4
0,
#SCROLL 2.44
0,
#SCROLL 2.48
0,
#SCROLL 2.52
0,
#SCROLL 2.56
0,
#SCROLL 2.6
0,
#SCROLL 2.64
0,
#SCROLL 2.68
0,
#SCROLL 2.72
0,
#SCROLL 2.76
0,
#SCROLL 2.8
0,
#SCROLL 2.84
0,
#SCROLL 2.88
0,
#SCROLL 2.92
0,
#SCROLL 2.96
0,
#SCROLL 3
0,
#SCROLL 3.04
0,
#SCROLL 3.08
0,
#SCROLL 3.12
0,
#SCROLL 3.16
0,
#SCROLL 3.2
0,
#SCROLL 3.24
0,
#SCROLL 3.28
0,
#SCROLL 3.32
0,
#SCROLL 3.36
0,
#SCROLL 3.4
0,
#SCROLL 3.44
0,
#SCROLL 3.48
0,
#SCROLL 3.52
0,
#SCROLL 3.56
0,
#SCROLL 3.6
0,
#SCROLL 3.64
0,
#SCROLL 3.68
0,
#SCROLL 3.72
0,
#SCROLL 3.76
0,
#SCROLL 3.8
0,
#SCROLL 3.84
0,
#SCROLL 3.88
0,
#SCROLL 3.92
0,
#SCROLL 3.96
0,
#SCROLL 4
0,
#SCROLL 4.04
0,
#SCROLL 4.08
0,
#SCROLL 4.12
0,
#SCROLL 4.16
0,
#SCROLL 4.2
0,
#SCROLL 4.24
0,
#SCROLL 4.28
0,
#SCROLL 4.32
0,
#SCROLL 4.36
0,
#SCROLL 4.4
0,
#SCROLL 4.44
0,
#SCROLL 4.48
0,
#SCROLL 4.52
0,
#SCROLL 4.56
0,
#SCROLL 4.6
0,
#SCROLL 4.50526
0,
#SCROLL 4.41053
0,
#SCROLL 4.31579
0,
#SCROLL 4.22105
0,
#SCROLL 4.12632
0,
#SCROLL 4.03158
0,
#SCROLL 3.93684
0,
#SCROLL 3.84211
0,
#SCROLL 3.74737
0,
#SCROLL 3.65263
0,
#SCROLL 3.55789
0,
#SCROLL 3.46316
0,
#SCROLL 3.36842
0,
#SCROLL 3.27368
0,
#SCROLL 3.17895
0,
#SCROLL 3.08421
0,
#SCROLL 2.98947
0,
#SCROLL 2.89474
0,
#SCROLL 2.8
0,
#SCROLL 2.70526
0,
#SCROLL 2.61053
0,
#SCROLL 2.51579
0,
#SCROLL 2.42105
0,
#SCROLL 2.32632
0,
#SCROLL 2.23158
0,
#SCROLL 2.13684
0,
#SCROLL 2.04211
0,
#SCROLL 1.94737
0,
#SCROLL 1.85263
0,
#SCROLL 1.75789
0,
#SCROLL 1.66316
0,
#SCROLL 1.56842
0,
#SCROLL 1.47368
0,
#SCROLL 1.37895
0,
#SCROLL 1.28421
0,
#SCROLL 1.18947
0,
#SCROLL 1.09474
0,
#MEASURE 4/4
#SCROLL 1
2220,
#GOGOSTART
3
#GOGOEND
1
#GOGOSTART
10,
1011101
#GOGOEND
0,
00
#GOGOSTART
11,
100000000000000010000000100000001000000000000000100000000000000
#GOGOEND
0,
#END

COURSE:Normal
LEVEL:5
NOTESDESIGNER1:Colin
SCOREDIFF:
SCOREINIT:
#START
30010050,
,
8,
3434,
30101001,
1000100010010010,
10011011,
1,
40202022,
2000200020020020,
20025000,
8,
30011011,
10111000,
20202220,
20222020,
30011011,
10111000,
20202220,
20222000,
#GOGOSTART
3
#GOGOEND
00
#GOGOSTART
3
#GOGOEND
00
#GOGOSTART
3
#GOGOEND
0,
00
#GOGOSTART
30
#GOGOEND
0000
#GOGOSTART
30
#GOGOEND
0
#GOGOSTART
00
#GOGOEND
0
#GOGOSTART
00,
#GOGOEND
#GOGOSTART
3
#GOGOEND
00
#GOGOSTART
3
#GOGOEND
00
#GOGOSTART
3
#GOGOEND
0,
0
#GOGOSTART
3
#GOGOEND
003030,
40002220,
20200220,
30303333,
,
#GOGOSTART
30101011,
10111010,
1000100010010010,
11000222,
22200025,
00008022,
02000022,
0202000
#GOGOEND
3,
#GOGOSTART
3
#GOGOEND
0
#GOGOSTART
301011,
1015080
#GOGOEND
4,
#GOGOSTART
4
#GOGOEND
0
#GOGOSTART
402022,
2202200
#GOGOEND
3,
#GOGOSTART
30
#GOGOEND
00
#GOGOSTART
300010010010,
10110110,
444
#GOGOEND
0,
#GOGOSTART
3333,
#MEASURE 1/32
#GOGOEND
#SCROLL 1
3,
#SCROLL 2.32
0,
#SCROLL 2.36
0,
#SCROLL 2.4
0,
#SCROLL 2.44
0,
#SCROLL 2.48
0,
#SCROLL 2.52
0,
#SCROLL 2.56
0,
#SCROLL 2.6
0,
#SCROLL 2.64
0,
#SCROLL 2.68
0,
#SCROLL 2.72
0,
#SCROLL 2.76
0,
#SCROLL 2.8
0,
#SCROLL 2.84
0,
#SCROLL 2.88
0,
#SCROLL 2.92
0,
#SCROLL 2.96
0,
#SCROLL 3
0,
#SCROLL 3.04
0,
#SCROLL 3.08
0,
#SCROLL 3.12
0,
#SCROLL 3.16
0,
#SCROLL 3.2
0,
#SCROLL 3.24
0,
#SCROLL 3.28
0,
#SCROLL 3.32
0,
#SCROLL 3.36
0,
#SCROLL 3.4
0,
#SCROLL 3.44
0,
#SCROLL 3.48
0,
#SCROLL 3.52
0,
#SCROLL 3.56
0,
#SCROLL 3.6
0,
#SCROLL 3.64
0,
#SCROLL 3.68
0,
#SCROLL 3.72
0,
#SCROLL 3.76
0,
#SCROLL 3.8
0,
#SCROLL 3.84
0,
#SCROLL 3.88
0,
#SCROLL 3.92
0,
#SCROLL 3.96
0,
#SCROLL 4
0,
#SCROLL 4.04
0,
#SCROLL 4.08
0,
#SCROLL 4.12
0,
#SCROLL 4.16
0,
#SCROLL 4.2
0,
#SCROLL 4.24
0,
#SCROLL 4.28
0,
#SCROLL 4.32
0,
#SCROLL 4.36
0,
#SCROLL 4.4
0,
#SCROLL 4.44
0,
#SCROLL 4.48
0,
#SCROLL 4.52
0,
#SCROLL 4.56
0,
#SCROLL 4.6
0,
#SCROLL 4.50526
0,
#SCROLL 4.41053
0,
#SCROLL 4.31579
0,
#SCROLL 4.22105
0,
#SCROLL 4.12632
0,
#SCROLL 4.03158
0,
#SCROLL 3.93684
0,
#SCROLL 3.84211
0,
#SCROLL 3.74737
0,
#SCROLL 3.65263
0,
#SCROLL 3.55789
0,
#SCROLL 3.46316
0,
#SCROLL 3.36842
0,
#SCROLL 3.27368
0,
#SCROLL 3.17895
0,
#SCROLL 3.08421
0,
#SCROLL 2.98947
0,
#SCROLL 2.89474
0,
#SCROLL 2.8
0,
#SCROLL 2.70526
0,
#SCROLL 2.61053
0,
#SCROLL 2.51579
0,
#SCROLL 2.42105
0,
#SCROLL 2.32632
0,
#SCROLL 2.23158
0,
#SCROLL 2.13684
0,
#SCROLL 2.04211
0,
#SCROLL 1.94737
0,
#SCROLL 1.85263
0,
#SCROLL 1.75789
0,
#SCROLL 1.66316
0,
#SCROLL 1.56842
0,
#SCROLL 1.47368
0,
#SCROLL 1.37895
0,
#SCROLL 1.28421
0,
#SCROLL 1.18947
0,
#SCROLL 1.09474
0,
#MEASURE 4/4
#SCROLL 1
2220,
#GOGOSTART
30
#GOGOEND
10
#GOGOSTART
1011,
1011101
#GOGOEND
0,
0000
#GOGOSTART
1011,
100000000000000010000000100000001000000010000000100000001000000
#GOGOEND
0,
#END

COURSE:Hard
LEVEL:6
NOTESDESIGNER2:Colin
SCOREDIFF:
SCOREINIT:
#START
30020020,
0200,
1010200022002000,
3434,
30222012,
10110000,
1001002020020010,
12120000,
1001002020200000,
1001001020200000,
3003003060000000,
80222220,
3000002010222010,
20211020,
11202120,
1010202010111010,
3000002010222010,
20211020,
11202120,
11221020,
#GOGOSTART
3
#GOGOEND
00
#GOGOSTART
3
#GOGOEND
00
#GOGOSTART
3
#GOGOEND
0,
00
#GOGOSTART
30
#GOGOEND
0000
#GOGOSTART
30
#GOGOEND
0
#GOGOSTART
30
#GOGOEND
0
#GOGOSTART
30,
#GOGOEND
#GOGOSTART
3
#GOGOEND
00
#GOGOSTART
3
#GOGOEND
00
#GOGOSTART
3
#GOGOEND
0,
0
#GOGOSTART
3
#GOGOEND
003030,
30201121,
0010201110102000,
34343333,
,
#GOGOSTART
3000200010110020,
1000200010220010,
2000200010010022,
22001122,
1020201110101050,
00008012,
01212212,
00200020000022
#GOGOEND
20,
#GOGOSTART
30
#GOGOEND
00
#GOGOSTART
400010110220,
1225008
#GOGOEND
4,
#GOGOSTART
3
#GOGOEND
0
#GOGOSTART
401212,
10010050000080
#GOGOEND
30,
#GOGOSTART
30
#GOGOEND
00
#GOGOSTART
400020220010,
22120120,
101110102020
#GOGOEND
2000,
#GOGOSTART
2022202010201020,
#MEASURE 1/32
#GOGOEND
#SCROLL 1
3,
#SCROLL 2.32
0,
#SCROLL 2.36
0,
#SCROLL 2.4
0,
#SCROLL 2.44
0,
#SCROLL 2.48
0,
#SCROLL 2.52
0,
#SCROLL 2.56
0,
#SCROLL 2.6
0,
#SCROLL 2.64
0,
#SCROLL 2.68
0,
#SCROLL 2.72
0,
#SCROLL 2.76
0,
#SCROLL 2.8
0,
#SCROLL 2.84
0,
#SCROLL 2.88
0,
#SCROLL 2.92
0,
#SCROLL 2.96
0,
#SCROLL 3
0,
#SCROLL 3.04
0,
#SCROLL 3.08
0,
#SCROLL 3.12
0,
#SCROLL 3.16
0,
#SCROLL 3.2
0,
#SCROLL 3.24
0,
#SCROLL 3.28
0,
#SCROLL 3.32
0,
#SCROLL 3.36
0,
#SCROLL 3.4
0,
#SCROLL 3.44
0,
#SCROLL 3.48
0,
#SCROLL 3.52
0,
#SCROLL 3.56
0,
#SCROLL 3.6
0,
#SCROLL 3.64
0,
#SCROLL 3.68
0,
#SCROLL 3.72
0,
#SCROLL 3.76
0,
#SCROLL 3.8
0,
#SCROLL 3.84
0,
#SCROLL 3.88
0,
#SCROLL 3.92
0,
#SCROLL 3.96
0,
#SCROLL 4
0,
#SCROLL 4.04
0,
#SCROLL 4.08
0,
#SCROLL 4.12
0,
#SCROLL 4.16
0,
#SCROLL 4.2
0,
#SCROLL 4.24
0,
#SCROLL 4.28
0,
#SCROLL 4.32
0,
#SCROLL 4.36
0,
#SCROLL 4.4
0,
#SCROLL 4.44
0,
#SCROLL 4.48
0,
#SCROLL 4.52
0,
#SCROLL 4.56
0,
#SCROLL 4.6
0,
#SCROLL 4.50526
0,
#SCROLL 4.41053
0,
#SCROLL 4.31579
0,
#SCROLL 4.22105
0,
#SCROLL 4.12632
0,
#SCROLL 4.03158
0,
#SCROLL 3.93684
0,
#SCROLL 3.84211
0,
#SCROLL 3.74737
0,
#SCROLL 3.65263
0,
#SCROLL 3.55789
0,
#SCROLL 3.46316
0,
#SCROLL 3.36842
0,
#SCROLL 3.27368
0,
#SCROLL 3.17895
0,
#SCROLL 3.08421
0,
#SCROLL 2.98947
0,
#SCROLL 2.89474
0,
#SCROLL 2.8
0,
#SCROLL 2.70526
0,
#SCROLL 2.61053
0,
#SCROLL 2.51579
0,
#SCROLL 2.42105
0,
#SCROLL 2.32632
0,
#SCROLL 2.23158
0,
#SCROLL 2.13684
0,
#SCROLL 2.04211
0,
#SCROLL 1.94737
0,
#SCROLL 1.85263
0,
#SCROLL 1.75789
0,
#SCROLL 1.66316
0,
#SCROLL 1.56842
0,
#SCROLL 1.47368
0,
#SCROLL 1.37895
0,
#SCROLL 1.28421
0,
#SCROLL 1.18947
0,
#SCROLL 1.09474
0,
#MEASURE 4/4
#SCROLL 1
20202044,
#GOGOSTART
3000
#GOGOEND
1011
#GOGOSTART
10002020,
1212101
#GOGOEND
2,
1020
#GOGOSTART
1212,
200000002000000020000000100000002000000010000000200000002000000
#GOGOEND
0,
#END

COURSE:Oni
LEVEL:8
NOTESDESIGNER3:Colin
SCOREDIFF:
SCOREINIT:
#START
30210150,
08500080,
4011201022021120,
3434,
3002001120020012,
1020102010110210,
1001001210020020,
1020102010112010,
3002002010110020,
1002002010221020,
3004003060000080,
02122221,
3011201212012012,
1010202202101022,
1010201211102022,
1010202202101020,
3011201212012012,
1010202202101022,
1010201211102022,
121012121020
#SCROLL 1.2
3000,
#GOGOSTART
#SCROLL 1.3
3
#SCROLL 1
0000000
#GOGOEND
2000100020000000
#GOGOSTART
#SCROLL 1.3
3
#SCROLL 1
0000000
#GOGOEND
2000200020000000
#GOGOSTART
#SCROLL 1.3
3
#SCROLL 1
0000000
#GOGOEND
20001000,
20000000
#GOGOSTART
#SCROLL 1.3
3
#SCROLL 1
0000000
#GOGOEND
2000200010000000
#GOGOSTART
#SCROLL 1.3
3
#SCROLL 1
0000000
#GOGOEND
2000
#GOGOSTART
#SCROLL 1.3
3
#SCROLL 1
0000000
#GOGOEND
2000
#GOGOSTART
#SCROLL 1.3
3
#SCROLL 1
0000000,
#GOGOEND
#GOGOSTART
#SCROLL 1.3
3
#SCROLL 1
0000000
#GOGOEND
2000100020000000
#GOGOSTART
#SCROLL 1.3
3
#SCROLL 1
0000000
#GOGOEND
2000200020000000
#GOGOSTART
#SCROLL 1.3
3
#SCROLL 1
0000000
#GOGOEND
20001000,
200000000000000000000000
#GOGOSTART
#SCROLL 1.3
300
#SCROLL 1
000000000000000000000
#GOGOEND
200000000000200000000000100000000000000000000000100000000000200000000000100000001000000010000000200000000000000000000000200000000000000000000000,
3010202201112120,
1012201201102120,
34443444,
#SCROLL 1.3
3
#SCROLL 1.38
3
#SCROLL 1.46
3
#SCROLL 1.54
3
#SCROLL 1.62
3
#SCROLL 1.7
3000000,
#GOGOSTART
#SCROLL 1.3
3
#SCROLL 1
012012011202012,
1012021012022020,
1022011012112020,
1012212011120120,
1022012011202212,
1022012012102120,
1112012012022020,
12102122101210
#GOGOEND
#SCROLL 1.1
30,
#GOGOSTART
#SCROLL 1.2
40
#GOGOEND
#SCROLL 1
10
#GOGOSTART
#SCROLL 1.4
40
#SCROLL 1
1210210220,
10212011222120
#GOGOEND
#SCROLL 1.1
30,
#GOGOSTART
#SCROLL 1.2
40
#GOGOEND
#SCROLL 1
10
#GOGOSTART
#SCROLL 1.4
40
#SCROLL 1
2212102020,
11120120121210
#GOGOEND
#SCROLL 1.1
30,
#GOGOSTART
#SCROLL 1.2
40
#GOGOEND
#SCROLL 1
10
#GOGOSTART
#SCROLL 1.4
40
#SCROLL 1
1020120120,
1021202210221120,
302210203040
#GOGOEND
3000,
#GOGOSTART
#SCROLL 1
3
#SCROLL 1.16
2
#SCROLL 1.32
3
#SCROLL 1.48
2
#SCROLL 1.64
3
#SCROLL 1.8
2
#SCROLL 1.96
3
#SCROLL 2.12
2,
#MEASURE 1/32
#GOGOEND
#SCROLL 2.28
3,
#SCROLL 2.32
0,
#SCROLL 2.36
0,
#SCROLL 2.4
0,
#SCROLL 2.44
0,
#SCROLL 2.48
0,
#SCROLL 2.52
0,
#SCROLL 2.56
0,
#SCROLL 2.6
0,
#SCROLL 2.64
0,
#SCROLL 2.68
0,
#SCROLL 2.72
0,
#SCROLL 2.76
0,
#SCROLL 2.8
0,
#SCROLL 2.84
0,
#SCROLL 2.88
0,
#SCROLL 2.92
0,
#SCROLL 2.96
0,
#SCROLL 3
0,
#SCROLL 3.04
0,
#SCROLL 3.08
0,
#SCROLL 3.12
0,
#SCROLL 3.16
0,
#SCROLL 3.2
0,
#SCROLL 3.24
0,
#SCROLL 3.28
0,
#SCROLL 3.32
0,
#SCROLL 3.36
0,
#SCROLL 3.4
0,
#SCROLL 3.44
0,
#SCROLL 3.48
0,
#SCROLL 3.52
0,
#SCROLL 3.56
0,
#SCROLL 3.6
0,
#SCROLL 3.64
0,
#SCROLL 3.68
0,
#SCROLL 3.72
0,
#SCROLL 3.76
0,
#SCROLL 3.8
0,
#SCROLL 3.84
0,
#SCROLL 3.88
0,
#SCROLL 3.92
0,
#SCROLL 3.96
0,
#SCROLL 4
0,
#SCROLL 4.04
0,
#SCROLL 4.08
0,
#SCROLL 4.12
0,
#SCROLL 4.16
0,
#SCROLL 4.2
0,
#SCROLL 4.24
0,
#SCROLL 4.28
0,
#SCROLL 4.32
0,
#SCROLL 4.36
0,
#SCROLL 4.4
0,
#SCROLL 4.44
0,
#SCROLL 4.48
0,
#SCROLL 4.52
0,
#SCROLL 4.56
0,
#SCROLL 4.6
0,
#SCROLL 4.50526
0,
#SCROLL 4.41053
0,
#SCROLL 4.31579
0,
#SCROLL 4.22105
0,
#SCROLL 4.12632
0,
#SCROLL 4.03158
0,
#SCROLL 3.93684
0,
#SCROLL 3.84211
0,
#SCROLL 3.74737
0,
#SCROLL 3.65263
0,
#SCROLL 3.55789
0,
#SCROLL 3.46316
0,
#SCROLL 3.36842
0,
#SCROLL 3.27368
0,
#SCROLL 3.17895
0,
#SCROLL 3.08421
0,
#SCROLL 2.98947
0,
#SCROLL 2.89474
0,
#SCROLL 2.8
0,
#SCROLL 2.70526
0,
#SCROLL 2.61053
0,
#SCROLL 2.51579
0,
#SCROLL 2.42105
0,
#SCROLL 2.32632
0,
#SCROLL 2.23158
0,
#SCROLL 2.13684
0,
#SCROLL 2.04211
0,
#SCROLL 1.94737
0,
#SCROLL 1.85263
0,
#SCROLL 1.75789
0,
#SCROLL 1.66316
0,
#SCROLL 1.56842
0,
#SCROLL 1.47368
0,
#SCROLL 1.37895
0,
#SCROLL 1.28421
0,
#SCROLL 1.18947
0,
#SCROLL 1.09474
0,
#MEASURE 4/4
#SCROLL 1
202020
#SCROLL 1.3
4
#SCROLL 1.5
4,
#GOGOSTART
#SCROLL 2
300000
#SCROLL 1
200200
#GOGOEND
100000101010
#GOGOSTART
100000200200100000100200,
10201220102012
#GOGOEND
10,
10221022
#GOGOSTART
10121020,
100000002000200010001000200000001000000010002000100010002000000
#GOGOEND
0,
#END
