TITLE:Bug
SUBTITLE:--Kairiki bear feat. Nightcord at 25:00 / Project SEKAI COLORFUL STAGE!
TITLEJA:バグ
SUBTITLEJA:かいりきベア feat. 25時、ナイトコードで。 「プロジェクトセカイ カラフルステージ!」より
PREIMAGE:Bug.png
BPM:186
WAVE:Bug.ogg
BGMOVIE:Bug.mp4
OFFSET:-1.144
DEMOSTART:99.395
MAKER:Colin

COURSE:Oni
LEVEL:8
SCOREINIT:
SCOREDIFF:
NOTESDESIGNER3:Colin
#START
#MEASURE 9/4
112120102010201120212011221120001000,
#MEASURE 4/4
#GOGOSTART
1000201120102010,
0011201120112010,
10101121,
0011201120112210,
10202121,
0011201120112010,
10201121,
0011201120112000,
#GOGOEND
10101012,
02121020,
20202212,
0010201120112010,
1020102210221020,
1020102210201000,
#BARLINEOFF
#SCROLL 0.8
10101221,
#BARLINEON
#SCROLL 1
01212121,
1011201010102010,
0010202210221020,
10202212,
0010201010212020,
1020101020221010,
0010202010112000,
1222102010102010,
01211020,
1000222210102010,
01212020,
1000222210201020,
0022102010102000,
1010222210102010,
02112010,
1010202010201022,
#SCROLL 1.1
1011202010112000,
#BARLINEOFF
#SCROLL 1.2
3
#SCROLL 1.3
4
#SCROLL 1.4
3
#SCROLL 1.5
4
#SCROLL 1.6
3
#BARLINEON
#SCROLL 1
020,
#GOGOSTART
1010201020112020,
1011202020112010,
1022102010102010,
1020102000112000,
1010202010112020,
1011201020102010,
11211221,
#BARLINEOFF
#SCROLL 1.1
3
#SCROLL 1
0
#SCROLL 1.2
4
#SCROLL 1
0
#SCROLL 1.3
3
#SCROLL 1
0
#SCROLL 1.4
4
#SCROLL 1
0
#SCROLL 1.5
3
#BARLINEON
#SCROLL 1
0112000,
11201212,
02121121,
2011201010102010,
2011201120112000,
11211121,
1011202210221020,
1020101120201010,
#BARLINEOFF
#SCROLL 1.1
3
#SCROLL 1
0
#SCROLL 1.2
4
#SCROLL 1
0
#SCROLL 1.3
3
#SCROLL 1
0
#SCROLL 1.4
4
#SCROLL 1
0
#SCROLL 1.5
3
#BARLINEON
#SCROLL 1
0112000,
#BARLINEOFF
#SCROLL 1.1
3
#SCROLL 1.2
4
#SCROLL 1.3
3
#SCROLL 1.4
4
#SCROLL 1.5
3
#BARLINEON
#SCROLL 1
0
#GOGOEND
20,
#GOGOSTART
1000201120102010,
0011201120112010,
10101121,
0011201120112210,
#GOGOEND
1000001122221020,
1000
#SCROLL 3
4
#SCROLL 1
00022102010,
1022102012221020,
1011202011211212,
1011201022102010,
1011202010102010,
1011201122102020,
1011202010201222,
101120102111202
#BARLINEOFF
#SCROLL 0.1
0,
0000000
#SCROLL 3
1,
#SCROLL 1
0000000010112000,
3030,
3330,
,
#SCROLL 1.1
3
#SCROLL 1
0
#SCROLL 1.2
4
#SCROLL 1
0
#SCROLL 1.3
3
#SCROLL 1
0
#SCROLL 1.4
4
#BARLINEON
#SCROLL 1
000112000,
1011202210112010,
2011201020221020,
34004310,
#BARLINEOFF
#SCROLL 1.1
3
#SCROLL 1
0
#SCROLL 1.2
4
#SCROLL 1
0
#SCROLL 1.3
3
#SCROLL 1
0
#SCROLL 1.4
4
#SCROLL 1
0
#SCROLL 1.5
3
#BARLINEON
#SCROLL 1
0112020,
#BARLINEOFF
#SCROLL 1.6
3
#SCROLL 1
0
#SCROLL 1.7
4
#SCROLL 1
0
#SCROLL 1.8
3
#SCROLL 1
0
#SCROLL 1.9
4
#SCROLL 1
0
#SCROLL 2
3
#SCROLL 1
0112000,
#GOGOSTART
#BARLINEON
1010201020112020,
1011202020112010,
1022102010102010,
1020102000112000,
1010202010112020,
1011201020221020,
11211121,
#BARLINEOFF
#SCROLL 1.1
3
#SCROLL 1
0
#SCROLL 1.2
4
#SCROLL 1
0
#SCROLL 1.3
3
#SCROLL 1
0
#SCROLL 1.4
4
#SCROLL 1
0
#SCROLL 1.5
3
#BARLINEON
#SCROLL 1
0112000,
11201212,
0020102012112010,
2011201210102010,
2011201120112000,
10201121,
1011202210221020,
1020101120201010,
#BARLINEOFF
#SCROLL 1.1
3
#SCROLL 1
0
#SCROLL 1.2
4
#SCROLL 1
0
#SCROLL 1.3
3
#SCROLL 1
0
#SCROLL 1.4
4
#SCROLL 1
0
#SCROLL 1.5
3
#BARLINEON
#SCROLL 1
1120200,
#BARLINEOFF
#SCROLL 1.6
3
#SCROLL 1.7
4
#SCROLL 1.8
3
#SCROLL 1.9
4
#SCROLL 2
3
#BARLINEON
#SCROLL 1
020,
#BARLINEOFF
#SCROLL 1.1
3
#SCROLL 1.2
3
#SCROLL 1.3
3
#SCROLL 1.4
3,
#SCROLL 1.5
3
#SCROLL 1.6
4
#SCROLL 1.7
3
#SCROLL 1.8
4
#SCROLL 1.9
3
#SCROLL 2
4
#SCROLL 2.1
3
#SCROLL 2.2
4,
#SCROLL 2.3
4
#GOGOEND
#SCROLL 1
210,
,
#END

COURSE:Hard
LEVEL:8
SCOREINIT:
SCOREDIFF:
NOTESDESIGNER2:Colin
#START
#MEASURE 9/4
000040003000400040003011101010000000,
#MEASURE 4/4
#GOGOSTART
10201201,
01202020,
10201201,
01202020,
10201201,
01202020,
10201201,
01202020,
#GOGOEND
1111,
1111,
20202202,
02222010,
1111,
1111,
20000002,
,
1210,
10201012,
10101202,
01111020,
10202021,
01221020,
10201201,
01221020,
30303003,
,
40404004,
,
30303003,
,
1111,
34343000,
34343020,
#GOGOSTART
10201120,
1011101020001010,
20101011,
22220120,
10201120,
1011101020001010,
20101011,
22220020,
10201201,
01121020,
12221202,
1112,
10201202,
10101210,
22222200,
34343020,
34343000,
10201201,
01202020,
10201201,
01202020,
#GOGOEND
1000001022202020,
10201110,
20202222,
10201202,
1111,
10201201,
01221212,
10211212,
01101010,
20000002,
,
3030,
3330,
,
33330000,
1111,
1111,
2020,
34343020,
34343020,
#GOGOSTART
10201120,
1011101020001010,
20101011,
22220120,
10201120,
1011101020001010,
2111,
34343020,
10201201,
01121020,
12221202,
34343020,
10201202,
01101010,
22222200,
34343020,
34343000,
1111,
34343434,
#GOGOEND
4430,
,
#END

COURSE:Normal
LEVEL:5
BALLOON:15
SCOREINIT:
SCOREDIFF:
NOTESDESIGNER1:Colin
#START
#BARLINEOFF
0,
,
0
#GOGOSTART
#BARLINEON
121,
0022,
2121,
0022,
2121,
0022,
2121,
0022,
2
#GOGOEND
100,
0100,
0100,
0100,
0200,
0200,
0100,
,
0121,
2102,
0122,
01000000,
0101,
0101,
0100,
02000000,
0112,
0101,
0222,
01000000,
0222,
01000000,
1220,
10600008,
00600008,
0
#GOGOSTART
121,
2500,
8202,
00222200,
1121,
2500,
8121,
0222,
0102,
0111,
0202,
0222,
0101,
0111,
0202,
0111,
0111,
0121,
0022,
2121,
0022,
2
#GOGOEND
100,
0121,
0101,
0101,
0101,
0121,
0101,
0101,
0122,
2,
02000000,
0303,
0333,
0200,
,
0111,
0111,
0303,
0333,
0333,
0
#GOGOSTART
121,
2500,
8202,
00222200,
1121,
2500,
8121,
0222,
0102,
0111,
0202,
0222,
0101,
0111,
0202,
0111,
0111,
0700,
,
0
#GOGOEND
811,
,
#END

COURSE:Easy
LEVEL:4
BALLOON:10
SCOREINIT:
SCOREDIFF:
NOTESDESIGNER0:Colin
#START
#MEASURE 9/4
#BARLINEOFF
00,
#GOGOSTART
#BARLINEON
101002021,
010020210,
100202101,
00202
#GOGOEND
1000,
01,
000200000,
001000000,
010101000,
102010001,
010100010,
000200000000100020,
010002020,
100020201,
000000060,
080060000800
#GOGOSTART
100010,
050082020,
200200101000102050,
008101020,
201000101,
020002020,
100010102,
000101010,
101010020,
210100202,
#GOGOEND
111,
000100010,
001010100,
010101000,
003,
030333020,
000000101,
010103030,
33303330
#GOGOSTART
1,
012500820,
200020020010100010,
050081010,
202010201,
000202020,
001010100,
020201000,
101070000,
000
#GOGOEND
811000,
,
#END
