TITLE:Supernova
SUBTITLE:--Yunosuke & Haruno feat. MORE MORE JUMP! / Project SEKAI COLORFUL STAGE!
TITLEJA:Supernova
SUBTITLEJA:雄之助×春野 feat. MORE MORE JUMP! 「プロジェクトセカイ カラフルステージ!」 より
PREIMAGE:Supernova.png
BGMOVIE:Supernova.mp4
WAVE:Supernova.ogg
BPM:105
OFFSET:-1.033
DEMOSTART:39.890
MAKER:Colin

COURSE:Easy
LEVEL:2
SCOREINIT:
SCOREDIFF:
NOTESDESIGNER0:Colin
#START
#SCROLL 1.3
0,
1110,
1110,
1110,
1110,
2022,
2020,
2022,
2020,
1010,
1001,
1010,
1,
2020,
2,
1010,
1,
#GOGOSTART
3110,
2220,
1110,
2220,
#GOGOEND
0
#GOGOSTART
110,
2220,
1011,
1010,
3010,
10
#GOGOEND
10,
2
#GOGOSTART
020,
2,
2020,
2220,
#GOGOEND
1010,
1,
1010,
1,
2020,
2020,
3,
#GOGOSTART
30000
#GOGOEND
0
#GOGOSTART
30000
#GOGOEND
0
#GOGOSTART
300000000
#GOGOEND
000,
3
#GOGOSTART
330,
2220,
1110,
2220,
#GOGOEND
0
#GOGOSTART
110,
2220,
1011,
1010,
3110,
2220,
1110,
2220,
#GOGOEND
1
#GOGOSTART
110,
2220,
1110,
#GOGOEND
2222,
2,
#END

COURSE:Normal
LEVEL:2
SCOREINIT:
SCOREDIFF:
NOTESDESIGNER1:Colin
#START
#SCROLL 1.3
0,
10101011,
1110,
10101011,
1110,
20202022,
2220,
2222,
2220,
1011,
10001011,
1011,
1010,
20002022,
2220,
1111,
1110,
#GOGOSTART
30111010,
20202220,
10111010,
20202220,
#GOGOEND
00
#GOGOSTART
101110,
2220,
10101110,
1111,
3110,
1011
#GOGOEND
1000,
2
#GOGOSTART
222,
20222000,
20202220,
2222,
#GOGOEND
1110,
1110,
1210,
1210,
20202022,
2220,
3,
#GOGOSTART
30000
#GOGOEND
0
#GOGOSTART
30000
#GOGOEND
0
#GOGOSTART
300000100
#GOGOEND
000,
30
#GOGOSTART
303011,
20202220,
10111010,
20222020,
#GOGOEND
00
#GOGOSTART
111010,
22202020,
11101010,
10101110,
30101011,
2220,
10111010,
20222000,
#GOGOEND
10
#GOGOSTART
111010,
20222020,
10111020,
#GOGOEND
2222,
2,
#END

COURSE:Hard
LEVEL:4
SCOREINIT:
SCOREDIFF:
NOTESDESIGNER2:Colin
#START
#SCROLL 1.3
00000222,
100001100000100001000000,
100100100200100000001002,
200000100000100001100100,
12121058,
100100200001100100200000,
100100200000102200200000,
100100200001100100200000,
11201000,
3121,
200200200000200000200205,
000000800100200000202002,
02225080,
30011222,
01122220,
5082,
2220,
#GOGOSTART
400000400000400000100202,
001000202000100100100000,
202200200100100000100000,
200002002000500000800000,
#GOGOEND
00
#GOGOSTART
311112,
11121212,
101101000200202002200100,
21212121,
200000100000200100200001,
100202200200
#GOGOEND
500000800000,
30
#GOGOSTART
211020,
100100200001100100200000,
100100200001100100200000,
100200100200102200100200,
#GOGOEND
100100508000,
100200100200100002000000,
200200200200200200101000,
12221021,
100000200000200001002200,
100200100100200002000000,
3,
#GOGOSTART
40000
#GOGOEND
0
#GOGOSTART
40000
#GOGOEND
0
#GOGOSTART
400000400
#GOGOEND
000,
400000
#GOGOSTART
400000400000100202,
001000202000100100100000,
202200200100100000100000,
200002002000500000800000,
#GOGOEND
00
#GOGOSTART
311112,
11121212,
101101000200202002200100,
21212121,
200000100000200001000200,
100202200200500000800000,
100200100200100200101000,
12212011,
#GOGOEND
200000
#GOGOSTART
100000200002001101,
100200100200100002000000,
200200100100200100201000,
#GOGOEND
2222,
2,
#END

COURSE:Oni
LEVEL:8
SCOREINIT:
SCOREDIFF:
NOTESDESIGNER3:Colin
#START
#SCROLL 1.3
000000000000000201202200,
300002202000100002001202,
002201100200100000001202,
200001202001202001002202,
001201100200200000201202,
100100200202202002002201,
001101202201102002002102,
100100100200200000202201,
000100200101200001200102,
200200101200200202101200,
200200101200101200200202,
100200100100202202202002,
000200100200101202202200,
300101200100400202202101,
100101102200400202101202,
12214222,
200000200000202102202100,
#GOGOSTART
400100300200402200100202,
002000202002001202200200,
102102200201202001200200,
202102002001200100201202,
#GOGOEND
000202
#GOGOSTART
100202100200200202,
11112122,
201201000201202002200100,
202201202202201102101200,
200100200100200100200002,
100200200200
#GOGOEND
300000002202,
100101
#GOGOSTART
200201202001002001,
001001102202001002200200,
100100200202200102002001,
201102101102111111211110,
#GOGOEND
400001200100202101201102,
200200100200202102200002,
200200200200200200101000,
12222021,
100000200000202101202202,
100200200100102002200200,
32121212,
#GOGOSTART
40303
#GOGOEND
0
#GOGOSTART
40303
#GOGOEND
0
#GOGOSTART
111101202
#GOGOEND
100,
300200
#GOGOSTART
300200402202100202,
102000202002001202202202,
102102200201202001200200,
202102002001200100201202,
#GOGOEND
100202
#GOGOSTART
100202100200200202,
11112122,
201201200201202002200100,
202201202202201102101200,
100100200100200101002102,
200200100200400004000200,
200200200200100200101000,
100200200100200000102100,
#GOGOEND
201101
#GOGOSTART
200100101102001102,
100200200200102202200200,
200200200100200200201000,
#GOGOEND
100100102200200200201000,
2,
#END
