generated from DragonRatTiger/Custom-Charts
3498 lines
49 KiB
Plaintext
3498 lines
49 KiB
Plaintext
TITLE:Apartment
|
|
SUBTITLE:--Custard
|
|
PREIMAGE:Apartment.jpg
|
|
BPM:166
|
|
WAVE:Apartment.ogg
|
|
OFFSET:-0.076
|
|
DEMOSTART:17.777
|
|
MAKER:Colin
|
|
|
|
COURSE:Oni
|
|
LEVEL:8
|
|
BALLOON:1989
|
|
SCOREINIT:
|
|
SCOREDIFF:
|
|
NOTESDESIGNER3:Colin
|
|
|
|
#START
|
|
10121212,
|
|
#BPMCHANGE 163
|
|
#SCROLL 1.01840490797546
|
|
01210111,
|
|
#BPMCHANGE 165
|
|
#SCROLL 1.006060606060606
|
|
10
|
|
#BPMCHANGE 169
|
|
#SCROLL 0.9822485207100592
|
|
2012
|
|
#BPMCHANGE 176
|
|
#SCROLL 0.9431818181818182
|
|
12,
|
|
#BPMCHANGE 156
|
|
#SCROLL 1.064102564102564
|
|
0000
|
|
#BPMCHANGE 181
|
|
#SCROLL 0.9171270718232044
|
|
2011
|
|
#BPMCHANGE 169
|
|
#SCROLL 0.9822485207100592
|
|
20221010,
|
|
#GOGOSTART
|
|
#BPMCHANGE 170
|
|
#SCROLL 0.976470588235294
|
|
10201121,
|
|
#BPMCHANGE 169
|
|
#SCROLL 0.9822485207100592
|
|
2121
|
|
#BPMCHANGE 165
|
|
#SCROLL 1.006060606060606
|
|
1120,
|
|
#BPMCHANGE 172
|
|
#SCROLL 0.9651162790697676
|
|
10
|
|
#BPMCHANGE 168
|
|
#SCROLL 0.988095238095238
|
|
202120,
|
|
#BPMCHANGE 173
|
|
#SCROLL 0.9595375722543352
|
|
10
|
|
#BPMCHANGE 165
|
|
#SCROLL 1.006060606060606
|
|
20
|
|
#BPMCHANGE 178
|
|
#SCROLL 0.9325842696629212
|
|
11
|
|
#BPMCHANGE 169
|
|
#SCROLL 0.9822485207100592
|
|
20,
|
|
1000200010112000,
|
|
1000
|
|
#BPMCHANGE 160
|
|
#SCROLL 1.0375
|
|
2002
|
|
#BPMCHANGE 178
|
|
#SCROLL 0.9325842696629212
|
|
1010
|
|
#BPMCHANGE 171
|
|
#SCROLL 0.9707602339181286
|
|
2000,
|
|
10201120,
|
|
#BPMCHANGE 167
|
|
#SCROLL 0.994011976047904
|
|
1010
|
|
#BPMCHANGE 165
|
|
#SCROLL 1.006060606060606
|
|
2000
|
|
#BPMCHANGE 173
|
|
#SCROLL 0.9595375722543352
|
|
1122
|
|
#BPMCHANGE 167
|
|
#SCROLL 0.994011976047904
|
|
2111,
|
|
#GOGOEND
|
|
#BPMCHANGE 171
|
|
#SCROLL 0.9707602339181286
|
|
20
|
|
#BPMCHANGE 174
|
|
#SCROLL 0.9540229885057472
|
|
20
|
|
#BPMCHANGE 169
|
|
#SCROLL 0.9822485207100592
|
|
1120,
|
|
#BPMCHANGE 166
|
|
#SCROLL 1
|
|
10102000
|
|
#BPMCHANGE 173
|
|
#SCROLL 0.9595375722543352
|
|
1011
|
|
#BPMCHANGE 165
|
|
#SCROLL 1.006060606060606
|
|
2000,
|
|
#BPMCHANGE 168
|
|
#SCROLL 0.988095238095238
|
|
10002000
|
|
#BPMCHANGE 173
|
|
#SCROLL 0.9595375722543352
|
|
10112000,
|
|
#BPMCHANGE 170
|
|
#SCROLL 0.976470588235294
|
|
10002020
|
|
#BPMCHANGE 172
|
|
#SCROLL 0.9651162790697676
|
|
1011
|
|
#BPMCHANGE 168
|
|
#SCROLL 0.988095238095238
|
|
2000,
|
|
#BPMCHANGE 177
|
|
#SCROLL 0.9378531073446328
|
|
1010
|
|
#BPMCHANGE 165
|
|
#SCROLL 1.006060606060606
|
|
2000
|
|
#BPMCHANGE 177
|
|
#SCROLL 0.9378531073446328
|
|
1011
|
|
#BPMCHANGE 176
|
|
#SCROLL 0.9431818181818182
|
|
2010,
|
|
#BPMCHANGE 163
|
|
#SCROLL 1.01840490797546
|
|
2010
|
|
#BPMCHANGE 166
|
|
#SCROLL 1
|
|
2000
|
|
#BPMCHANGE 167
|
|
#SCROLL 0.994011976047904
|
|
1011
|
|
#BPMCHANGE 168
|
|
#SCROLL 0.988095238095238
|
|
2000,
|
|
#BPMCHANGE 177
|
|
#SCROLL 0.9378531073446328
|
|
10
|
|
#BPMCHANGE 174
|
|
#SCROLL 0.9540229885057472
|
|
20
|
|
#BPMCHANGE 167
|
|
#SCROLL 0.994011976047904
|
|
1120,
|
|
#BPMCHANGE 169
|
|
#SCROLL 0.9822485207100592
|
|
1000
|
|
#BPMCHANGE 173
|
|
#SCROLL 0.9595375722543352
|
|
2011
|
|
#BPMCHANGE 172
|
|
#SCROLL 0.9651162790697676
|
|
2011
|
|
#BPMCHANGE 170
|
|
#SCROLL 0.976470588235294
|
|
2011,
|
|
#BPMCHANGE 168
|
|
#SCROLL 0.988095238095238
|
|
20
|
|
#BPMCHANGE 170
|
|
#SCROLL 0.976470588235294
|
|
2011
|
|
#BPMCHANGE 166
|
|
#SCROLL 1
|
|
21,
|
|
#BPMCHANGE 170
|
|
#SCROLL 0.976470588235294
|
|
1000
|
|
#BPMCHANGE 169
|
|
#SCROLL 0.9822485207100592
|
|
2000
|
|
#BPMCHANGE 166
|
|
#SCROLL 1
|
|
1011
|
|
#BPMCHANGE 161
|
|
#SCROLL 1.031055900621118
|
|
2000,
|
|
#BPMCHANGE 175
|
|
#SCROLL 0.9485714285714286
|
|
10
|
|
#BPMCHANGE 170
|
|
#SCROLL 0.976470588235294
|
|
20
|
|
#BPMCHANGE 172
|
|
#SCROLL 0.9651162790697676
|
|
11
|
|
#BPMCHANGE 169
|
|
#SCROLL 0.9822485207100592
|
|
20,
|
|
#BPMCHANGE 172
|
|
#SCROLL 0.9651162790697676
|
|
11
|
|
#BPMCHANGE 168
|
|
#SCROLL 0.988095238095238
|
|
20
|
|
#BPMCHANGE 176
|
|
#SCROLL 0.9431818181818182
|
|
11
|
|
#BPMCHANGE 168
|
|
#SCROLL 0.988095238095238
|
|
20,
|
|
#BPMCHANGE 170
|
|
#SCROLL 0.976470588235294
|
|
11
|
|
#BPMCHANGE 169
|
|
#SCROLL 0.9822485207100592
|
|
2010
|
|
#BPMCHANGE 167
|
|
#SCROLL 0.994011976047904
|
|
20,
|
|
#BPMCHANGE 165
|
|
#SCROLL 1.006060606060606
|
|
1120
|
|
#BPMCHANGE 171
|
|
#SCROLL 0.9707602339181286
|
|
10
|
|
#BPMCHANGE 167
|
|
#SCROLL 0.994011976047904
|
|
20,
|
|
#BPMCHANGE 171
|
|
#SCROLL 0.9707602339181286
|
|
10
|
|
#BPMCHANGE 170
|
|
#SCROLL 0.976470588235294
|
|
20
|
|
#BPMCHANGE 170.5
|
|
#SCROLL 0.9736070381231672
|
|
3323,
|
|
21
|
|
#BPMCHANGE 171
|
|
#SCROLL 0.9707602339181286
|
|
203323,
|
|
21
|
|
#BPMCHANGE 168
|
|
#SCROLL 0.988095238095238
|
|
212222,
|
|
#BPMCHANGE 161
|
|
#SCROLL 1.031055900621118
|
|
20000000
|
|
#BPMCHANGE 185
|
|
#SCROLL 0.8972972972972973
|
|
5008
|
|
#BPMCHANGE 161
|
|
#SCROLL 1.031055900621118
|
|
2000,
|
|
#BPMCHANGE 174
|
|
#SCROLL 0.9540229885057472
|
|
1000
|
|
#BPMCHANGE 168
|
|
#SCROLL 0.988095238095238
|
|
200010112010,
|
|
20102010
|
|
#BPMCHANGE 166
|
|
#SCROLL 1
|
|
22102000,
|
|
#BPMCHANGE 172
|
|
#SCROLL 0.9651162790697676
|
|
10
|
|
#BPMCHANGE 170
|
|
#SCROLL 0.976470588235294
|
|
20
|
|
#BPMCHANGE 163
|
|
#SCROLL 1.01840490797546
|
|
11
|
|
#BPMCHANGE 172
|
|
#SCROLL 0.9651162790697676
|
|
21,
|
|
1122
|
|
#BPMCHANGE 168
|
|
#SCROLL 0.988095238095238
|
|
1020,
|
|
#BPMCHANGE 167
|
|
#SCROLL 0.994011976047904
|
|
1010
|
|
#BPMCHANGE 169
|
|
#SCROLL 0.9822485207100592
|
|
2000
|
|
#BPMCHANGE 171
|
|
#SCROLL 0.9707602339181286
|
|
1110
|
|
#BPMCHANGE 166
|
|
#SCROLL 1
|
|
2010,
|
|
1010
|
|
#BPMCHANGE 165
|
|
#SCROLL 1.006060606060606
|
|
2000
|
|
#BPMCHANGE 182
|
|
#SCROLL 0.912087912087912
|
|
1011
|
|
#BPMCHANGE 169
|
|
#SCROLL 0.9822485207100592
|
|
2000,
|
|
#BPMCHANGE 166
|
|
#SCROLL 1
|
|
10
|
|
#BPMCHANGE 170
|
|
#SCROLL 0.976470588235294
|
|
2011
|
|
#BPMCHANGE 167
|
|
#SCROLL 0.994011976047904
|
|
20,
|
|
#BPMCHANGE 174
|
|
#SCROLL 0.9540229885057472
|
|
1010
|
|
#BPMCHANGE 164
|
|
#SCROLL 1.0121951219512195
|
|
2000
|
|
#BPMCHANGE 169
|
|
#SCROLL 0.9822485207100592
|
|
1022
|
|
#BPMCHANGE 178
|
|
#SCROLL 0.9325842696629212
|
|
0222,
|
|
#BPMCHANGE 170
|
|
#SCROLL 0.976470588235294
|
|
11
|
|
#BPMCHANGE 158
|
|
#SCROLL 1.0506329113924051
|
|
21
|
|
#BPMCHANGE 182
|
|
#SCROLL 0.912087912087912
|
|
11
|
|
#BPMCHANGE 153
|
|
#SCROLL 1.084967320261438
|
|
21,
|
|
#BPMCHANGE 191
|
|
#SCROLL 0.8691099476439791
|
|
11
|
|
#BPMCHANGE 167
|
|
#SCROLL 0.994011976047904
|
|
21
|
|
#BPMCHANGE 164
|
|
#SCROLL 1.0121951219512195
|
|
1121,
|
|
#BPMCHANGE 170
|
|
#SCROLL 0.976470588235294
|
|
1000200010112010,
|
|
#BPMCHANGE 167
|
|
#SCROLL 0.994011976047904
|
|
100000000000
|
|
#BPMCHANGE 169
|
|
#SCROLL 0.9822485207100592
|
|
200000100000
|
|
#BPMCHANGE 175
|
|
#SCROLL 0.9485714285714286
|
|
100000202020
|
|
#BPMCHANGE 176
|
|
#SCROLL 0.9431818181818182
|
|
100000200200,
|
|
#BPMCHANGE 166
|
|
#SCROLL 1
|
|
11
|
|
#BPMCHANGE 169
|
|
#SCROLL 0.9822485207100592
|
|
21
|
|
#BPMCHANGE 166
|
|
#SCROLL 1
|
|
11
|
|
#BPMCHANGE 165
|
|
#SCROLL 1.006060606060606
|
|
21,
|
|
11
|
|
#BPMCHANGE 172
|
|
#SCROLL 0.9651162790697676
|
|
21
|
|
#BPMCHANGE 170
|
|
#SCROLL 0.976470588235294
|
|
11
|
|
#BPMCHANGE 158
|
|
#SCROLL 1.0506329113924051
|
|
20,
|
|
#BPMCHANGE 174
|
|
#SCROLL 0.9540229885057472
|
|
1000
|
|
#BPMCHANGE 176
|
|
#SCROLL 0.9431818181818182
|
|
2010
|
|
#BPMCHANGE 171
|
|
#SCROLL 0.9707602339181286
|
|
1212
|
|
#BPMCHANGE 169
|
|
#SCROLL 0.9822485207100592
|
|
1010,
|
|
#BPMCHANGE 168
|
|
#SCROLL 0.988095238095238
|
|
11
|
|
#BPMCHANGE 173
|
|
#SCROLL 0.9595375722543352
|
|
20
|
|
#BPMCHANGE 170
|
|
#SCROLL 0.976470588235294
|
|
33
|
|
#BPMCHANGE 171
|
|
#SCROLL 0.9707602339181286
|
|
21,
|
|
#BPMCHANGE 170
|
|
#SCROLL 0.976470588235294
|
|
2121
|
|
#BPMCHANGE 171
|
|
#SCROLL 0.9707602339181286
|
|
2121,
|
|
#BPMCHANGE 164
|
|
#SCROLL 1.0121951219512195
|
|
200000202020
|
|
#BPMCHANGE 172
|
|
#SCROLL 0.9651162790697676
|
|
100000100100
|
|
#BPMCHANGE 168
|
|
#SCROLL 0.988095238095238
|
|
100000100100
|
|
#BPMCHANGE 175
|
|
#SCROLL 0.9485714285714286
|
|
100000000000,
|
|
#GOGOSTART
|
|
#BPMCHANGE 163
|
|
#SCROLL 1.01840490797546
|
|
1
|
|
#BPMCHANGE 171
|
|
#SCROLL 0.9707602339181286
|
|
2
|
|
#BPMCHANGE 174
|
|
#SCROLL 0.9540229885057472
|
|
1
|
|
#BPMCHANGE 168
|
|
#SCROLL 0.988095238095238
|
|
2,
|
|
#BPMCHANGE 174
|
|
#SCROLL 0.9540229885057472
|
|
1
|
|
#BPMCHANGE 172.5
|
|
#SCROLL 0.9623188405797102
|
|
21
|
|
#BPMCHANGE 166
|
|
#SCROLL 1
|
|
2,
|
|
#BPMCHANGE 169
|
|
#MEASURE 3/4
|
|
#SCROLL 0.9822485207100592
|
|
1010
|
|
#BPMCHANGE 167
|
|
#SCROLL 0.994011976047904
|
|
20112222,
|
|
#MEASURE 4/4
|
|
10201022,
|
|
#BPMCHANGE 177
|
|
#SCROLL 0.9378531073446328
|
|
1
|
|
#BPMCHANGE 169
|
|
#SCROLL 0.9822485207100592
|
|
212,
|
|
#BPMCHANGE 171
|
|
#MEASURE 3/4
|
|
#SCROLL 0.9707602339181286
|
|
1122
|
|
#BPMCHANGE 176
|
|
#SCROLL 0.9431818181818182
|
|
0222
|
|
#BPMCHANGE 168
|
|
#SCROLL 0.988095238095238
|
|
1111,
|
|
#BPMCHANGE 172
|
|
#MEASURE 4/4
|
|
#SCROLL 0.9651162790697676
|
|
2212,
|
|
#BPMCHANGE 169
|
|
#SCROLL 0.9822485207100592
|
|
1020
|
|
#BPMCHANGE 177
|
|
#SCROLL 0.9378531073446328
|
|
11
|
|
#BPMCHANGE 176
|
|
#SCROLL 0.9431818181818182
|
|
20,
|
|
#BPMCHANGE 170
|
|
#MEASURE 3/4
|
|
#SCROLL 0.976470588235294
|
|
202020100000
|
|
#BPMCHANGE 165
|
|
#SCROLL 1.006060606060606
|
|
200100100000200000100000,
|
|
#BPMCHANGE 171
|
|
#MEASURE 4/4
|
|
#SCROLL 0.9707602339181286
|
|
20201120,
|
|
1212,
|
|
#MEASURE 3/4
|
|
1111
|
|
#BPMCHANGE 162
|
|
#SCROLL 1.0246913580246917
|
|
20,
|
|
#GOGOEND
|
|
#BPMCHANGE 169
|
|
#MEASURE 4/4
|
|
#SCROLL 0.9822485207100592
|
|
1000200010112000,
|
|
10102000
|
|
#BPMCHANGE 175
|
|
#SCROLL 0.9485714285714286
|
|
2210
|
|
#BPMCHANGE 166
|
|
#SCROLL 1
|
|
2000,
|
|
#BPMCHANGE 175
|
|
#SCROLL 0.9485714285714286
|
|
1000
|
|
#BPMCHANGE 168
|
|
#SCROLL 0.988095238095238
|
|
2010
|
|
#BPMCHANGE 174
|
|
#SCROLL 0.9540229885057472
|
|
2011
|
|
#BPMCHANGE 170
|
|
#SCROLL 0.976470588235294
|
|
2000,
|
|
1010
|
|
#BPMCHANGE 174
|
|
#SCROLL 0.9540229885057472
|
|
2000
|
|
#BPMCHANGE 172
|
|
#SCROLL 0.9651162790697676
|
|
10112000,
|
|
#BPMCHANGE 169
|
|
#SCROLL 0.9822485207100592
|
|
1010200010112000,
|
|
10102000
|
|
#BPMCHANGE 168
|
|
#SCROLL 0.988095238095238
|
|
11112000,
|
|
30
|
|
#BPMCHANGE 179
|
|
#SCROLL 0.9273743016759776
|
|
20
|
|
#BPMCHANGE 168
|
|
#SCROLL 0.988095238095238
|
|
11
|
|
#BPMCHANGE 166
|
|
#SCROLL 1
|
|
20,
|
|
#BPMCHANGE 173
|
|
#SCROLL 0.9595375722543352
|
|
10012011
|
|
#BPMCHANGE 175
|
|
#SCROLL 0.9485714285714286
|
|
12102212,
|
|
#BPMCHANGE 172
|
|
#SCROLL 0.9651162790697676
|
|
1020
|
|
#BPMCHANGE 168
|
|
#SCROLL 0.988095238095238
|
|
1120,
|
|
#BPMCHANGE 169
|
|
#SCROLL 0.9822485207100592
|
|
1020
|
|
#BPMCHANGE 173
|
|
#SCROLL 0.9595375722543352
|
|
11
|
|
#BPMCHANGE 170
|
|
#SCROLL 0.976470588235294
|
|
20,
|
|
#BPMCHANGE 168.5
|
|
#SCROLL 0.9851632047477744
|
|
1020
|
|
#BPMCHANGE 166
|
|
#SCROLL 1
|
|
11
|
|
#BPMCHANGE 164
|
|
#SCROLL 1.0121951219512195
|
|
20,
|
|
#BPMCHANGE 170
|
|
#SCROLL 0.976470588235294
|
|
11
|
|
#BPMCHANGE 171
|
|
#SCROLL 0.9707602339181286
|
|
2021
|
|
#BPMCHANGE 170
|
|
#SCROLL 0.976470588235294
|
|
20,
|
|
#BPMCHANGE 171
|
|
#SCROLL 0.9707602339181286
|
|
10
|
|
#BPMCHANGE 172
|
|
#SCROLL 0.9651162790697676
|
|
2011
|
|
#BPMCHANGE 169
|
|
#SCROLL 0.9822485207100592
|
|
20,
|
|
#BPMCHANGE 173
|
|
#SCROLL 0.9595375722543352
|
|
10
|
|
#BPMCHANGE 171
|
|
#SCROLL 0.9707602339181286
|
|
20
|
|
#BPMCHANGE 169
|
|
#SCROLL 0.9822485207100592
|
|
11
|
|
#BPMCHANGE 170
|
|
#SCROLL 0.976470588235294
|
|
20,
|
|
#BPMCHANGE 166
|
|
#SCROLL 1
|
|
30
|
|
#BPMCHANGE 173
|
|
#SCROLL 0.9595375722543352
|
|
40
|
|
#BPMCHANGE 170
|
|
#SCROLL 0.976470588235294
|
|
3304,
|
|
#BPMCHANGE 177
|
|
#SCROLL 0.9378531073446328
|
|
01
|
|
#BPMCHANGE 170
|
|
#SCROLL 0.976470588235294
|
|
20
|
|
#BPMCHANGE 172
|
|
#SCROLL 0.9651162790697676
|
|
1101,
|
|
#BPMCHANGE 171
|
|
#SCROLL 0.9707602339181286
|
|
01
|
|
#BPMCHANGE 169
|
|
#SCROLL 0.9822485207100592
|
|
11
|
|
#BPMCHANGE 166
|
|
#SCROLL 1
|
|
11
|
|
#BPMCHANGE 180
|
|
#SCROLL 0.9222222222222224
|
|
11,
|
|
#BPMCHANGE 170
|
|
#SCROLL 0.976470588235294
|
|
100000202020
|
|
#BPMCHANGE 168
|
|
#SCROLL 0.988095238095238
|
|
100000100200
|
|
#BPMCHANGE 179
|
|
#SCROLL 0.9273743016759776
|
|
100200100100
|
|
#BPMCHANGE 174
|
|
#SCROLL 0.9540229885057472
|
|
100000100200,
|
|
#GOGOSTART
|
|
#BPMCHANGE 170
|
|
#SCROLL 0.976470588235294
|
|
10
|
|
#BPMCHANGE 176
|
|
#SCROLL 0.9431818181818182
|
|
20
|
|
#BPMCHANGE 169
|
|
#SCROLL 0.9822485207100592
|
|
11
|
|
#BPMCHANGE 175
|
|
#SCROLL 0.9485714285714286
|
|
20,
|
|
11
|
|
#BPMCHANGE 174
|
|
#SCROLL 0.9540229885057472
|
|
2010
|
|
#BPMCHANGE 169
|
|
#SCROLL 0.9822485207100592
|
|
20,
|
|
#BPMCHANGE 177
|
|
#MEASURE 3/4
|
|
#SCROLL 0.9378531073446328
|
|
1000
|
|
#BPMCHANGE 168
|
|
#SCROLL 0.988095238095238
|
|
2022
|
|
#BPMCHANGE 169
|
|
#SCROLL 0.9822485207100592
|
|
2222,
|
|
#BPMCHANGE 165
|
|
#MEASURE 4/4
|
|
#SCROLL 1.006060606060606
|
|
1000
|
|
#BPMCHANGE 166
|
|
#SCROLL 1
|
|
2000
|
|
#BPMCHANGE 174
|
|
#SCROLL 0.9540229885057472
|
|
1011
|
|
#BPMCHANGE 173
|
|
#SCROLL 0.9595375722543352
|
|
2010,
|
|
1
|
|
#BPMCHANGE 167
|
|
#SCROLL 0.994011976047904
|
|
2
|
|
#BPMCHANGE 177
|
|
#SCROLL 0.9378531073446328
|
|
12,
|
|
#BPMCHANGE 163
|
|
#MEASURE 3/4
|
|
#SCROLL 1.01840490797546
|
|
202000101010
|
|
#BPMCHANGE 168
|
|
#SCROLL 0.988095238095238
|
|
200000100200
|
|
#BPMCHANGE 169
|
|
#SCROLL 0.9822485207100592
|
|
100000100100,
|
|
#BPMCHANGE 168
|
|
#MEASURE 4/4
|
|
#SCROLL 0.988095238095238
|
|
2010
|
|
#BPMCHANGE 177
|
|
#SCROLL 0.9378531073446328
|
|
21
|
|
#BPMCHANGE 169
|
|
#SCROLL 0.9822485207100592
|
|
21,
|
|
21
|
|
#BPMCHANGE 175
|
|
#SCROLL 0.9485714285714286
|
|
212120,
|
|
#BPMCHANGE 169
|
|
#MEASURE 3/4
|
|
#SCROLL 0.9822485207100592
|
|
2201
|
|
#BPMCHANGE 182
|
|
#SCROLL 0.912087912087912
|
|
1221
|
|
#BPMCHANGE 166
|
|
#SCROLL 1
|
|
2211,
|
|
#BPMCHANGE 171
|
|
#MEASURE 4/4
|
|
#SCROLL 0.9707602339181286
|
|
200000
|
|
#BPMCHANGE 170
|
|
#SCROLL 0.976470588235294
|
|
100000
|
|
#BPMCHANGE 168
|
|
#SCROLL 0.988095238095238
|
|
200222100200,
|
|
#BPMCHANGE 171
|
|
#SCROLL 0.9707602339181286
|
|
12
|
|
#BPMCHANGE 178
|
|
#SCROLL 0.9325842696629212
|
|
121120,
|
|
#BPMCHANGE 173
|
|
#SCROLL 0.9595375722543352
|
|
202020100000200200100000
|
|
#BPMCHANGE 169
|
|
#SCROLL 0.9822485207100592
|
|
200100200200
|
|
#BPMCHANGE 306
|
|
#SCROLL 0.5424836601307189
|
|
100000000000,
|
|
#BPMCHANGE 170
|
|
#GOGOEND
|
|
#MEASURE 13/4
|
|
#SCROLL 0.976470588235294
|
|
7,
|
|
#BPMCHANGE 169
|
|
#MEASURE 4/4
|
|
#SCROLL 0.9822485207100592
|
|
08
|
|
#GOGOSTART
|
|
#BPMCHANGE 161
|
|
#SCROLL 1.031055900621118
|
|
20
|
|
#BPMCHANGE 178
|
|
#SCROLL 0.9325842696629212
|
|
11
|
|
#BPMCHANGE 171
|
|
#SCROLL 0.9707602339181286
|
|
20,
|
|
11
|
|
#BPMCHANGE 169
|
|
#SCROLL 0.9822485207100592
|
|
2011
|
|
#BPMCHANGE 166
|
|
#SCROLL 1
|
|
20,
|
|
#BPMCHANGE 171
|
|
#MEASURE 3/4
|
|
#SCROLL 0.9707602339181286
|
|
12221222
|
|
#BPMCHANGE 169
|
|
#SCROLL 0.9822485207100592
|
|
1222,
|
|
#BPMCHANGE 175
|
|
#MEASURE 4/4
|
|
#SCROLL 0.9485714285714286
|
|
1
|
|
#BPMCHANGE 170
|
|
#SCROLL 0.976470588235294
|
|
21
|
|
#BPMCHANGE 177
|
|
#SCROLL 0.9378531073446328
|
|
2,
|
|
10
|
|
#BPMCHANGE 167.5
|
|
#SCROLL 0.991044776119403
|
|
2011
|
|
#BPMCHANGE 169
|
|
#SCROLL 0.9822485207100592
|
|
20,
|
|
#BPMCHANGE 170
|
|
#MEASURE 3/4
|
|
#SCROLL 0.976470588235294
|
|
1222
|
|
#BPMCHANGE 173
|
|
#SCROLL 0.9595375722543352
|
|
1111
|
|
#BPMCHANGE 178
|
|
#SCROLL 0.9325842696629212
|
|
2222,
|
|
#BPMCHANGE 164
|
|
#MEASURE 4/4
|
|
#SCROLL 1.0121951219512195
|
|
1
|
|
#BPMCHANGE 169
|
|
#SCROLL 0.9822485207100592
|
|
444,
|
|
4
|
|
#BPMCHANGE 165
|
|
#SCROLL 1.006060606060606
|
|
4
|
|
#BPMCHANGE 164
|
|
#SCROLL 1.0121951219512195
|
|
4
|
|
#BPMCHANGE 171
|
|
#SCROLL 0.9707602339181286
|
|
4,
|
|
#BPMCHANGE 169
|
|
#SCROLL 0.9822485207100592
|
|
4022
|
|
#BPMCHANGE 171
|
|
#SCROLL 0.9707602339181286
|
|
1212,
|
|
#BPMCHANGE 168
|
|
#SCROLL 0.988095238095238
|
|
10
|
|
#BPMCHANGE 175
|
|
#SCROLL 0.9485714285714286
|
|
11
|
|
#BPMCHANGE 174
|
|
#SCROLL 0.9540229885057472
|
|
21
|
|
#BPMCHANGE 169
|
|
#SCROLL 0.9822485207100592
|
|
20,
|
|
#BPMCHANGE 166
|
|
#SCROLL 1
|
|
1000
|
|
#BPMCHANGE 174
|
|
#SCROLL 0.9540229885057472
|
|
2000
|
|
#BPMCHANGE 169
|
|
#SCROLL 0.9822485207100592
|
|
1011
|
|
#BPMCHANGE 175
|
|
#SCROLL 0.9485714285714286
|
|
2000,
|
|
#BPMCHANGE 169
|
|
#SCROLL 0.9822485207100592
|
|
1000
|
|
#BPMCHANGE 171
|
|
#SCROLL 0.9707602339181286
|
|
200010102022,
|
|
10101020
|
|
#BPMCHANGE 163
|
|
#SCROLL 1.01840490797546
|
|
10221000,
|
|
#GOGOEND
|
|
#END
|
|
|
|
COURSE:Hard
|
|
LEVEL:5
|
|
BALLOON:1989
|
|
SCOREINIT:
|
|
SCOREDIFF:
|
|
NOTESDESIGNER2:Colin
|
|
|
|
|
|
#START
|
|
10121012,
|
|
#BPMCHANGE 163
|
|
#SCROLL 1.01840490797546
|
|
01210110,
|
|
#BPMCHANGE 165
|
|
#SCROLL 1.006060606060606
|
|
10
|
|
#BPMCHANGE 169
|
|
#SCROLL 0.9822485207100592
|
|
2012
|
|
#BPMCHANGE 176
|
|
#SCROLL 0.9431818181818182
|
|
02,
|
|
#BPMCHANGE 156
|
|
#SCROLL 1.064102564102564
|
|
00
|
|
#BPMCHANGE 181
|
|
#SCROLL 0.9171270718232044
|
|
21
|
|
#GOGOSTART
|
|
#BPMCHANGE 169
|
|
#SCROLL 0.9822485207100592
|
|
2210,
|
|
#BPMCHANGE 170
|
|
#SCROLL 0.976470588235294
|
|
10201120,
|
|
#BPMCHANGE 169
|
|
#SCROLL 0.9822485207100592
|
|
1020
|
|
#BPMCHANGE 165
|
|
#SCROLL 1.006060606060606
|
|
1120,
|
|
#BPMCHANGE 172
|
|
#SCROLL 0.9651162790697676
|
|
10
|
|
#BPMCHANGE 168
|
|
#SCROLL 0.988095238095238
|
|
201120,
|
|
#BPMCHANGE 173
|
|
#SCROLL 0.9595375722543352
|
|
1
|
|
#BPMCHANGE 165
|
|
#SCROLL 1.006060606060606
|
|
2
|
|
#BPMCHANGE 178
|
|
#SCROLL 0.9325842696629212
|
|
1
|
|
#BPMCHANGE 169
|
|
#SCROLL 0.9822485207100592
|
|
2,
|
|
10201120,
|
|
10
|
|
#BPMCHANGE 160
|
|
#SCROLL 1.0375
|
|
20
|
|
#BPMCHANGE 178
|
|
#SCROLL 0.9325842696629212
|
|
11
|
|
#BPMCHANGE 171
|
|
#SCROLL 0.9707602339181286
|
|
20,
|
|
1212,
|
|
#BPMCHANGE 167
|
|
#SCROLL 0.994011976047904
|
|
1010
|
|
#BPMCHANGE 165
|
|
#SCROLL 1.006060606060606
|
|
2000
|
|
#BPMCHANGE 173
|
|
#SCROLL 0.9595375722543352
|
|
1110
|
|
#BPMCHANGE 167
|
|
#SCROLL 0.994011976047904
|
|
1110,
|
|
#GOGOEND
|
|
#BPMCHANGE 171
|
|
#SCROLL 0.9707602339181286
|
|
2
|
|
#BPMCHANGE 174
|
|
#SCROLL 0.9540229885057472
|
|
2
|
|
#BPMCHANGE 169
|
|
#SCROLL 0.9822485207100592
|
|
12,
|
|
#BPMCHANGE 166
|
|
#SCROLL 1
|
|
12
|
|
#BPMCHANGE 173
|
|
#SCROLL 0.9595375722543352
|
|
1
|
|
#BPMCHANGE 165
|
|
#SCROLL 1.006060606060606
|
|
2,
|
|
#BPMCHANGE 168
|
|
#SCROLL 0.988095238095238
|
|
1020
|
|
#BPMCHANGE 173
|
|
#SCROLL 0.9595375722543352
|
|
1120,
|
|
#BPMCHANGE 170
|
|
#SCROLL 0.976470588235294
|
|
1022
|
|
#BPMCHANGE 172
|
|
#SCROLL 0.9651162790697676
|
|
10
|
|
#BPMCHANGE 168
|
|
#SCROLL 0.988095238095238
|
|
20,
|
|
#BPMCHANGE 177
|
|
#SCROLL 0.9378531073446328
|
|
10
|
|
#BPMCHANGE 165
|
|
#SCROLL 1.006060606060606
|
|
20
|
|
#BPMCHANGE 177
|
|
#SCROLL 0.9378531073446328
|
|
11
|
|
#BPMCHANGE 176
|
|
#SCROLL 0.9431818181818182
|
|
20,
|
|
#BPMCHANGE 163
|
|
#SCROLL 1.01840490797546
|
|
21
|
|
#BPMCHANGE 166
|
|
#SCROLL 1
|
|
20
|
|
#BPMCHANGE 167
|
|
#SCROLL 0.994011976047904
|
|
11
|
|
#BPMCHANGE 168
|
|
#SCROLL 0.988095238095238
|
|
20,
|
|
#BPMCHANGE 177
|
|
#SCROLL 0.9378531073446328
|
|
1
|
|
#BPMCHANGE 174
|
|
#SCROLL 0.9540229885057472
|
|
2
|
|
#BPMCHANGE 167
|
|
#SCROLL 0.994011976047904
|
|
12,
|
|
#BPMCHANGE 169
|
|
#SCROLL 0.9822485207100592
|
|
10
|
|
#BPMCHANGE 173
|
|
#SCROLL 0.9595375722543352
|
|
21
|
|
#BPMCHANGE 172
|
|
#SCROLL 0.9651162790697676
|
|
20
|
|
#BPMCHANGE 170
|
|
#SCROLL 0.976470588235294
|
|
20,
|
|
#BPMCHANGE 168
|
|
#SCROLL 0.988095238095238
|
|
2
|
|
#BPMCHANGE 170
|
|
#SCROLL 0.976470588235294
|
|
21
|
|
#BPMCHANGE 166
|
|
#SCROLL 1
|
|
2,
|
|
#BPMCHANGE 170
|
|
#SCROLL 0.976470588235294
|
|
10
|
|
#BPMCHANGE 169
|
|
#SCROLL 0.9822485207100592
|
|
20
|
|
#BPMCHANGE 166
|
|
#SCROLL 1
|
|
11
|
|
#BPMCHANGE 161
|
|
#SCROLL 1.031055900621118
|
|
20,
|
|
#BPMCHANGE 175
|
|
#SCROLL 0.9485714285714286
|
|
1
|
|
#BPMCHANGE 170
|
|
#SCROLL 0.976470588235294
|
|
2
|
|
#BPMCHANGE 172
|
|
#SCROLL 0.9651162790697676
|
|
1
|
|
#BPMCHANGE 169
|
|
#SCROLL 0.9822485207100592
|
|
2,
|
|
#BPMCHANGE 172
|
|
#SCROLL 0.9651162790697676
|
|
1
|
|
#BPMCHANGE 168
|
|
#SCROLL 0.988095238095238
|
|
2
|
|
#BPMCHANGE 176
|
|
#SCROLL 0.9431818181818182
|
|
1
|
|
#BPMCHANGE 168
|
|
#SCROLL 0.988095238095238
|
|
2,
|
|
#BPMCHANGE 170
|
|
#SCROLL 0.976470588235294
|
|
1
|
|
#BPMCHANGE 169
|
|
#SCROLL 0.9822485207100592
|
|
21
|
|
#BPMCHANGE 167
|
|
#SCROLL 0.994011976047904
|
|
2,
|
|
#BPMCHANGE 165
|
|
#SCROLL 1.006060606060606
|
|
1120
|
|
#BPMCHANGE 171
|
|
#SCROLL 0.9707602339181286
|
|
10
|
|
#BPMCHANGE 167
|
|
#SCROLL 0.994011976047904
|
|
20,
|
|
#BPMCHANGE 171
|
|
#SCROLL 0.9707602339181286
|
|
10
|
|
#BPMCHANGE 170
|
|
#SCROLL 0.976470588235294
|
|
20
|
|
#BPMCHANGE 170.5
|
|
#SCROLL 0.9736070381231672
|
|
3303,
|
|
01
|
|
#BPMCHANGE 171
|
|
#SCROLL 0.9707602339181286
|
|
203303,
|
|
01
|
|
#BPMCHANGE 168
|
|
#SCROLL 0.988095238095238
|
|
202020,
|
|
#BPMCHANGE 161
|
|
#SCROLL 1.031055900621118
|
|
20000000
|
|
#BPMCHANGE 185
|
|
#SCROLL 0.8972972972972973
|
|
5008
|
|
#BPMCHANGE 161
|
|
#SCROLL 1.031055900621118
|
|
2000,
|
|
#BPMCHANGE 174
|
|
#SCROLL 0.9540229885057472
|
|
10
|
|
#BPMCHANGE 168
|
|
#SCROLL 0.988095238095238
|
|
201121,
|
|
0120
|
|
#BPMCHANGE 166
|
|
#SCROLL 1
|
|
2120,
|
|
#BPMCHANGE 172
|
|
#SCROLL 0.9651162790697676
|
|
10
|
|
#BPMCHANGE 170
|
|
#SCROLL 0.976470588235294
|
|
20
|
|
#BPMCHANGE 163
|
|
#SCROLL 1.01840490797546
|
|
11
|
|
#BPMCHANGE 172
|
|
#SCROLL 0.9651162790697676
|
|
21,
|
|
0120
|
|
#BPMCHANGE 168
|
|
#SCROLL 0.988095238095238
|
|
1020,
|
|
#BPMCHANGE 167
|
|
#SCROLL 0.994011976047904
|
|
10
|
|
#BPMCHANGE 169
|
|
#SCROLL 0.9822485207100592
|
|
20
|
|
#BPMCHANGE 171
|
|
#SCROLL 0.9707602339181286
|
|
11
|
|
#BPMCHANGE 166
|
|
#SCROLL 1
|
|
21,
|
|
01
|
|
#BPMCHANGE 165
|
|
#SCROLL 1.006060606060606
|
|
20
|
|
#BPMCHANGE 182
|
|
#SCROLL 0.912087912087912
|
|
11
|
|
#BPMCHANGE 169
|
|
#SCROLL 0.9822485207100592
|
|
20,
|
|
#BPMCHANGE 166
|
|
#SCROLL 1
|
|
10
|
|
#BPMCHANGE 170
|
|
#SCROLL 0.976470588235294
|
|
2011
|
|
#BPMCHANGE 167
|
|
#SCROLL 0.994011976047904
|
|
20,
|
|
#BPMCHANGE 174
|
|
#SCROLL 0.9540229885057472
|
|
10
|
|
#BPMCHANGE 164
|
|
#SCROLL 1.0121951219512195
|
|
20
|
|
#BPMCHANGE 169
|
|
#SCROLL 0.9822485207100592
|
|
12
|
|
#BPMCHANGE 178
|
|
#SCROLL 0.9325842696629212
|
|
02,
|
|
#BPMCHANGE 170
|
|
#SCROLL 0.976470588235294
|
|
10
|
|
#BPMCHANGE 158
|
|
#SCROLL 1.0506329113924051
|
|
21
|
|
#BPMCHANGE 182
|
|
#SCROLL 0.912087912087912
|
|
01
|
|
#BPMCHANGE 153
|
|
#SCROLL 1.084967320261438
|
|
21,
|
|
#BPMCHANGE 191
|
|
#SCROLL 0.8691099476439791
|
|
01
|
|
#BPMCHANGE 167
|
|
#SCROLL 0.994011976047904
|
|
21
|
|
#BPMCHANGE 164
|
|
#SCROLL 1.0121951219512195
|
|
0121,
|
|
#BPMCHANGE 170
|
|
#SCROLL 0.976470588235294
|
|
10201121,
|
|
#BPMCHANGE 167
|
|
#SCROLL 0.994011976047904
|
|
00
|
|
#BPMCHANGE 169
|
|
#SCROLL 0.9822485207100592
|
|
21
|
|
#BPMCHANGE 175
|
|
#SCROLL 0.9485714285714286
|
|
12
|
|
#BPMCHANGE 176
|
|
#SCROLL 0.9431818181818182
|
|
10,
|
|
#BPMCHANGE 166
|
|
#SCROLL 1
|
|
11
|
|
#BPMCHANGE 169
|
|
#SCROLL 0.9822485207100592
|
|
20
|
|
#BPMCHANGE 166
|
|
#SCROLL 1
|
|
11
|
|
#BPMCHANGE 165
|
|
#SCROLL 1.006060606060606
|
|
20,
|
|
11
|
|
#BPMCHANGE 172
|
|
#SCROLL 0.9651162790697676
|
|
20
|
|
#BPMCHANGE 170
|
|
#SCROLL 0.976470588235294
|
|
11
|
|
#BPMCHANGE 158
|
|
#SCROLL 1.0506329113924051
|
|
20,
|
|
#BPMCHANGE 174
|
|
#SCROLL 0.9540229885057472
|
|
10
|
|
#BPMCHANGE 176
|
|
#SCROLL 0.9431818181818182
|
|
21
|
|
#BPMCHANGE 171
|
|
#SCROLL 0.9707602339181286
|
|
10
|
|
#BPMCHANGE 169
|
|
#SCROLL 0.9822485207100592
|
|
11,
|
|
#BPMCHANGE 168
|
|
#SCROLL 0.988095238095238
|
|
01
|
|
#BPMCHANGE 173
|
|
#SCROLL 0.9595375722543352
|
|
20
|
|
#BPMCHANGE 170
|
|
#SCROLL 0.976470588235294
|
|
33
|
|
#BPMCHANGE 171
|
|
#SCROLL 0.9707602339181286
|
|
21,
|
|
#BPMCHANGE 170
|
|
#SCROLL 0.976470588235294
|
|
0101
|
|
#BPMCHANGE 171
|
|
#SCROLL 0.9707602339181286
|
|
2101,
|
|
#BPMCHANGE 164
|
|
#SCROLL 1.0121951219512195
|
|
2000
|
|
#BPMCHANGE 172
|
|
#SCROLL 0.9651162790697676
|
|
1011
|
|
#BPMCHANGE 168
|
|
#SCROLL 0.988095238095238
|
|
1011
|
|
#BPMCHANGE 175
|
|
#SCROLL 0.9485714285714286
|
|
1000,
|
|
#GOGOSTART
|
|
#BPMCHANGE 163
|
|
#SCROLL 1.01840490797546
|
|
1
|
|
#BPMCHANGE 171
|
|
#SCROLL 0.9707602339181286
|
|
2
|
|
#BPMCHANGE 174
|
|
#SCROLL 0.9540229885057472
|
|
1
|
|
#BPMCHANGE 168
|
|
#SCROLL 0.988095238095238
|
|
2,
|
|
#BPMCHANGE 174
|
|
#SCROLL 0.9540229885057472
|
|
1
|
|
#BPMCHANGE 172.5
|
|
#SCROLL 0.9623188405797102
|
|
21
|
|
#BPMCHANGE 166
|
|
#SCROLL 1
|
|
2,
|
|
#BPMCHANGE 169
|
|
#MEASURE 3/4
|
|
#SCROLL 0.9822485207100592
|
|
11
|
|
#BPMCHANGE 167
|
|
#SCROLL 0.994011976047904
|
|
2120,
|
|
#MEASURE 4/4
|
|
1212,
|
|
#BPMCHANGE 177
|
|
#SCROLL 0.9378531073446328
|
|
1
|
|
#BPMCHANGE 169
|
|
#SCROLL 0.9822485207100592
|
|
212,
|
|
#BPMCHANGE 171
|
|
#MEASURE 3/4
|
|
#SCROLL 0.9707602339181286
|
|
1
|
|
#BPMCHANGE 176
|
|
#SCROLL 0.9431818181818182
|
|
1
|
|
#BPMCHANGE 168
|
|
#SCROLL 0.988095238095238
|
|
1,
|
|
#BPMCHANGE 172
|
|
#MEASURE 4/4
|
|
#SCROLL 0.9651162790697676
|
|
2212,
|
|
#BPMCHANGE 169
|
|
#SCROLL 0.9822485207100592
|
|
12
|
|
#BPMCHANGE 177
|
|
#SCROLL 0.9378531073446328
|
|
1
|
|
#BPMCHANGE 176
|
|
#SCROLL 0.9431818181818182
|
|
2,
|
|
#BPMCHANGE 170
|
|
#MEASURE 3/4
|
|
#SCROLL 0.976470588235294
|
|
21
|
|
#BPMCHANGE 165
|
|
#SCROLL 1.006060606060606
|
|
2201,
|
|
#BPMCHANGE 171
|
|
#MEASURE 4/4
|
|
#SCROLL 0.9707602339181286
|
|
2212,
|
|
1212,
|
|
#MEASURE 3/4
|
|
11
|
|
#BPMCHANGE 162
|
|
#SCROLL 1.0246913580246917
|
|
2,
|
|
#BPMCHANGE 169
|
|
#MEASURE 4/4
|
|
#GOGOEND
|
|
#SCROLL 0.9822485207100592
|
|
10201120,
|
|
12
|
|
#BPMCHANGE 175
|
|
#SCROLL 0.9485714285714286
|
|
2
|
|
#BPMCHANGE 166
|
|
#SCROLL 1
|
|
2,
|
|
#BPMCHANGE 175
|
|
#SCROLL 0.9485714285714286
|
|
10
|
|
#BPMCHANGE 168
|
|
#SCROLL 0.988095238095238
|
|
20
|
|
#BPMCHANGE 174
|
|
#SCROLL 0.9540229885057472
|
|
21
|
|
#BPMCHANGE 170
|
|
#SCROLL 0.976470588235294
|
|
20,
|
|
10
|
|
#BPMCHANGE 174
|
|
#SCROLL 0.9540229885057472
|
|
20
|
|
#BPMCHANGE 172
|
|
#SCROLL 0.9651162790697676
|
|
1120,
|
|
#BPMCHANGE 169
|
|
#SCROLL 0.9822485207100592
|
|
10201120,
|
|
1020
|
|
#BPMCHANGE 168
|
|
#SCROLL 0.988095238095238
|
|
1120,
|
|
3
|
|
#BPMCHANGE 179
|
|
#SCROLL 0.9273743016759776
|
|
2
|
|
#BPMCHANGE 168
|
|
#SCROLL 0.988095238095238
|
|
1
|
|
#BPMCHANGE 166
|
|
#SCROLL 1
|
|
2,
|
|
#BPMCHANGE 173
|
|
#SCROLL 0.9595375722543352
|
|
10002011
|
|
#BPMCHANGE 175
|
|
#SCROLL 0.9485714285714286
|
|
10102000,
|
|
#BPMCHANGE 172
|
|
#SCROLL 0.9651162790697676
|
|
12
|
|
#BPMCHANGE 168
|
|
#SCROLL 0.988095238095238
|
|
12,
|
|
#BPMCHANGE 169
|
|
#SCROLL 0.9822485207100592
|
|
1020
|
|
#BPMCHANGE 173
|
|
#SCROLL 0.9595375722543352
|
|
11
|
|
#BPMCHANGE 170
|
|
#SCROLL 0.976470588235294
|
|
20,
|
|
#BPMCHANGE 168.5
|
|
#SCROLL 0.9851632047477744
|
|
12
|
|
#BPMCHANGE 166
|
|
#SCROLL 1
|
|
1
|
|
#BPMCHANGE 164
|
|
#SCROLL 1.0121951219512195
|
|
2,
|
|
#BPMCHANGE 170
|
|
#SCROLL 0.976470588235294
|
|
1
|
|
#BPMCHANGE 171
|
|
#SCROLL 0.9707602339181286
|
|
22
|
|
#BPMCHANGE 170
|
|
#SCROLL 0.976470588235294
|
|
2,
|
|
#BPMCHANGE 171
|
|
#SCROLL 0.9707602339181286
|
|
1
|
|
#BPMCHANGE 172
|
|
#SCROLL 0.9651162790697676
|
|
21
|
|
#BPMCHANGE 169
|
|
#SCROLL 0.9822485207100592
|
|
2,
|
|
#BPMCHANGE 173
|
|
#SCROLL 0.9595375722543352
|
|
1
|
|
#BPMCHANGE 171
|
|
#SCROLL 0.9707602339181286
|
|
2
|
|
#BPMCHANGE 169
|
|
#SCROLL 0.9822485207100592
|
|
1
|
|
#BPMCHANGE 170
|
|
#SCROLL 0.976470588235294
|
|
2,
|
|
#BPMCHANGE 166
|
|
#SCROLL 1
|
|
30
|
|
#BPMCHANGE 173
|
|
#SCROLL 0.9595375722543352
|
|
40
|
|
#BPMCHANGE 170
|
|
#SCROLL 0.976470588235294
|
|
3304,
|
|
#BPMCHANGE 177
|
|
#SCROLL 0.9378531073446328
|
|
01
|
|
#BPMCHANGE 170
|
|
#SCROLL 0.976470588235294
|
|
20
|
|
#BPMCHANGE 172
|
|
#SCROLL 0.9651162790697676
|
|
1101,
|
|
#BPMCHANGE 171
|
|
#SCROLL 0.9707602339181286
|
|
01
|
|
#BPMCHANGE 169
|
|
#SCROLL 0.9822485207100592
|
|
01
|
|
#BPMCHANGE 166
|
|
#SCROLL 1
|
|
10
|
|
#BPMCHANGE 180
|
|
#SCROLL 0.9222222222222224
|
|
11,
|
|
#GOGOSTART
|
|
#BPMCHANGE 170
|
|
#SCROLL 0.976470588235294
|
|
1020
|
|
#BPMCHANGE 168
|
|
#SCROLL 0.988095238095238
|
|
1000
|
|
#BPMCHANGE 179
|
|
#SCROLL 0.9273743016759776
|
|
1011
|
|
#BPMCHANGE 174
|
|
#SCROLL 0.9540229885057472
|
|
1010,
|
|
#BPMCHANGE 170
|
|
#SCROLL 0.976470588235294
|
|
1
|
|
#BPMCHANGE 176
|
|
#SCROLL 0.9431818181818182
|
|
2
|
|
#BPMCHANGE 169
|
|
#SCROLL 0.9822485207100592
|
|
1
|
|
#BPMCHANGE 175
|
|
#SCROLL 0.9485714285714286
|
|
2,
|
|
1
|
|
#BPMCHANGE 174
|
|
#SCROLL 0.9540229885057472
|
|
21
|
|
#BPMCHANGE 169
|
|
#SCROLL 0.9822485207100592
|
|
2,
|
|
#BPMCHANGE 177
|
|
#MEASURE 3/4
|
|
#SCROLL 0.9378531073446328
|
|
10
|
|
#BPMCHANGE 168
|
|
#SCROLL 0.988095238095238
|
|
22
|
|
#BPMCHANGE 169
|
|
#SCROLL 0.9822485207100592
|
|
22,
|
|
#BPMCHANGE 165
|
|
#MEASURE 4/4
|
|
#SCROLL 1.006060606060606
|
|
10
|
|
#BPMCHANGE 166
|
|
#SCROLL 1
|
|
20
|
|
#BPMCHANGE 174
|
|
#SCROLL 0.9540229885057472
|
|
11
|
|
#BPMCHANGE 173
|
|
#SCROLL 0.9595375722543352
|
|
20,
|
|
1
|
|
#BPMCHANGE 167
|
|
#SCROLL 0.994011976047904
|
|
2
|
|
#BPMCHANGE 177
|
|
#SCROLL 0.9378531073446328
|
|
12,
|
|
#BPMCHANGE 163
|
|
#MEASURE 3/4
|
|
#SCROLL 1.01840490797546
|
|
2010
|
|
#BPMCHANGE 168
|
|
#SCROLL 0.988095238095238
|
|
2000
|
|
#BPMCHANGE 169
|
|
#SCROLL 0.9822485207100592
|
|
1011,
|
|
#BPMCHANGE 168
|
|
#MEASURE 4/4
|
|
#SCROLL 0.988095238095238
|
|
1010
|
|
#BPMCHANGE 177
|
|
#SCROLL 0.9378531073446328
|
|
21
|
|
#BPMCHANGE 169
|
|
#SCROLL 0.9822485207100592
|
|
20,
|
|
21
|
|
#BPMCHANGE 175
|
|
#SCROLL 0.9485714285714286
|
|
202120,
|
|
#BPMCHANGE 169
|
|
#MEASURE 3/4
|
|
#SCROLL 0.9822485207100592
|
|
2201
|
|
#BPMCHANGE 182
|
|
#SCROLL 0.912087912087912
|
|
1011
|
|
#BPMCHANGE 166
|
|
#SCROLL 1
|
|
0110,
|
|
#BPMCHANGE 171
|
|
#MEASURE 4/4
|
|
#SCROLL 0.9707602339181286
|
|
20
|
|
#BPMCHANGE 170
|
|
#SCROLL 0.976470588235294
|
|
10
|
|
#BPMCHANGE 168
|
|
#SCROLL 0.988095238095238
|
|
2210,
|
|
#BPMCHANGE 171
|
|
#SCROLL 0.9707602339181286
|
|
12
|
|
#BPMCHANGE 178
|
|
#SCROLL 0.9325842696629212
|
|
101120,
|
|
#BPMCHANGE 173
|
|
#SCROLL 0.9595375722543352
|
|
2121
|
|
#BPMCHANGE 169
|
|
#SCROLL 0.9822485207100592
|
|
01
|
|
#BPMCHANGE 306
|
|
#SCROLL 0.5424836601307189
|
|
10,
|
|
#BPMCHANGE 170
|
|
#MEASURE 13/4
|
|
#GOGOEND
|
|
#SCROLL 0.976470588235294
|
|
7,
|
|
#BPMCHANGE 169
|
|
#MEASURE 4/4
|
|
#SCROLL 0.9822485207100592
|
|
08
|
|
#GOGOSTART
|
|
#BPMCHANGE 161
|
|
#SCROLL 1.031055900621118
|
|
20
|
|
#BPMCHANGE 178
|
|
#SCROLL 0.9325842696629212
|
|
10
|
|
#BPMCHANGE 171
|
|
#SCROLL 0.9707602339181286
|
|
20,
|
|
10
|
|
#BPMCHANGE 169
|
|
#SCROLL 0.9822485207100592
|
|
2011
|
|
#BPMCHANGE 166
|
|
#SCROLL 1
|
|
20,
|
|
#BPMCHANGE 171
|
|
#MEASURE 3/4
|
|
#SCROLL 0.9707602339181286
|
|
50
|
|
#BPMCHANGE 169
|
|
#SCROLL 0.9822485207100592
|
|
0,
|
|
#BPMCHANGE 175
|
|
#MEASURE 4/4
|
|
#SCROLL 0.9485714285714286
|
|
8
|
|
#BPMCHANGE 170
|
|
#SCROLL 0.976470588235294
|
|
21
|
|
#BPMCHANGE 177
|
|
#SCROLL 0.9378531073446328
|
|
2,
|
|
1
|
|
#BPMCHANGE 167.5
|
|
#SCROLL 0.991044776119403
|
|
21
|
|
#BPMCHANGE 169
|
|
#SCROLL 0.9822485207100592
|
|
2,
|
|
#BPMCHANGE 170
|
|
#MEASURE 3/4
|
|
#SCROLL 0.976470588235294
|
|
5
|
|
#BPMCHANGE 173
|
|
#SCROLL 0.9595375722543352
|
|
0
|
|
#BPMCHANGE 178
|
|
#SCROLL 0.9325842696629212
|
|
0,
|
|
#BPMCHANGE 164
|
|
#MEASURE 4/4
|
|
#SCROLL 1.0121951219512195
|
|
8
|
|
#BPMCHANGE 169
|
|
#SCROLL 0.9822485207100592
|
|
444,
|
|
4
|
|
#BPMCHANGE 165
|
|
#SCROLL 1.006060606060606
|
|
4
|
|
#BPMCHANGE 164
|
|
#SCROLL 1.0121951219512195
|
|
4
|
|
#BPMCHANGE 171
|
|
#SCROLL 0.9707602339181286
|
|
4,
|
|
#BPMCHANGE 169
|
|
#SCROLL 0.9822485207100592
|
|
4022
|
|
#BPMCHANGE 171
|
|
#SCROLL 0.9707602339181286
|
|
1012,
|
|
#BPMCHANGE 168
|
|
#SCROLL 0.988095238095238
|
|
10
|
|
#BPMCHANGE 175
|
|
#SCROLL 0.9485714285714286
|
|
11
|
|
#BPMCHANGE 174
|
|
#SCROLL 0.9540229885057472
|
|
01
|
|
#BPMCHANGE 169
|
|
#SCROLL 0.9822485207100592
|
|
20,
|
|
#BPMCHANGE 166
|
|
#SCROLL 1
|
|
10
|
|
#BPMCHANGE 174
|
|
#SCROLL 0.9540229885057472
|
|
20
|
|
#BPMCHANGE 169
|
|
#SCROLL 0.9822485207100592
|
|
11
|
|
#BPMCHANGE 175
|
|
#SCROLL 0.9485714285714286
|
|
20,
|
|
#BPMCHANGE 169
|
|
#SCROLL 0.9822485207100592
|
|
10
|
|
#BPMCHANGE 171
|
|
#SCROLL 0.9707602339181286
|
|
201120,
|
|
1112
|
|
#BPMCHANGE 163
|
|
#SCROLL 1.01840490797546
|
|
1010,
|
|
#GOGOEND
|
|
#END
|
|
|
|
COURSE:Normal
|
|
LEVEL:5
|
|
BALLOON:1989
|
|
SCOREINIT:
|
|
SCOREDIFF:
|
|
NOTESDESIGNER1:Colin
|
|
|
|
|
|
#START
|
|
0,
|
|
#BPMCHANGE 163
|
|
#SCROLL 1.01840490797546
|
|
0,
|
|
#BPMCHANGE 165
|
|
#SCROLL 1.006060606060606
|
|
0
|
|
#BPMCHANGE 169
|
|
#SCROLL 0.9822485207100592
|
|
00
|
|
#BPMCHANGE 176
|
|
#SCROLL 0.9431818181818182
|
|
0,
|
|
#BPMCHANGE 156
|
|
#SCROLL 1.064102564102564
|
|
0
|
|
#BPMCHANGE 181
|
|
#SCROLL 0.9171270718232044
|
|
0
|
|
#BPMCHANGE 169
|
|
#SCROLL 0.9822485207100592
|
|
00,
|
|
#BPMCHANGE 170
|
|
#SCROLL 0.976470588235294
|
|
12,
|
|
#BPMCHANGE 169
|
|
#SCROLL 0.9822485207100592
|
|
1
|
|
#BPMCHANGE 165
|
|
#SCROLL 1.006060606060606
|
|
2,
|
|
#BPMCHANGE 172
|
|
#SCROLL 0.9651162790697676
|
|
1
|
|
#BPMCHANGE 168
|
|
#SCROLL 0.988095238095238
|
|
020,
|
|
#BPMCHANGE 173
|
|
#SCROLL 0.9595375722543352
|
|
1
|
|
#BPMCHANGE 165
|
|
#SCROLL 1.006060606060606
|
|
0
|
|
#BPMCHANGE 178
|
|
#SCROLL 0.9325842696629212
|
|
2
|
|
#BPMCHANGE 169
|
|
#SCROLL 0.9822485207100592
|
|
0,
|
|
12,
|
|
1
|
|
#BPMCHANGE 160
|
|
#SCROLL 1.0375
|
|
0
|
|
#BPMCHANGE 178
|
|
#SCROLL 0.9325842696629212
|
|
2
|
|
#BPMCHANGE 171
|
|
#SCROLL 0.9707602339181286
|
|
0,
|
|
12,
|
|
#BPMCHANGE 167
|
|
#SCROLL 0.994011976047904
|
|
1
|
|
#BPMCHANGE 165
|
|
#SCROLL 1.006060606060606
|
|
0
|
|
#BPMCHANGE 173
|
|
#SCROLL 0.9595375722543352
|
|
2
|
|
#BPMCHANGE 167
|
|
#SCROLL 0.994011976047904
|
|
0,
|
|
#BPMCHANGE 171
|
|
#SCROLL 0.9707602339181286
|
|
1
|
|
#BPMCHANGE 174
|
|
#SCROLL 0.9540229885057472
|
|
1
|
|
#BPMCHANGE 169
|
|
#SCROLL 0.9822485207100592
|
|
10,
|
|
#BPMCHANGE 166
|
|
#SCROLL 1
|
|
11
|
|
#BPMCHANGE 173
|
|
#SCROLL 0.9595375722543352
|
|
1
|
|
#BPMCHANGE 165
|
|
#SCROLL 1.006060606060606
|
|
0,
|
|
#BPMCHANGE 168
|
|
#SCROLL 0.988095238095238
|
|
11
|
|
#BPMCHANGE 173
|
|
#SCROLL 0.9595375722543352
|
|
10,
|
|
#BPMCHANGE 170
|
|
#SCROLL 0.976470588235294
|
|
11
|
|
#BPMCHANGE 172
|
|
#SCROLL 0.9651162790697676
|
|
1
|
|
#BPMCHANGE 168
|
|
#SCROLL 0.988095238095238
|
|
0,
|
|
#BPMCHANGE 177
|
|
#SCROLL 0.9378531073446328
|
|
1
|
|
#BPMCHANGE 165
|
|
#SCROLL 1.006060606060606
|
|
1
|
|
#BPMCHANGE 177
|
|
#SCROLL 0.9378531073446328
|
|
1
|
|
#BPMCHANGE 176
|
|
#SCROLL 0.9431818181818182
|
|
0,
|
|
#BPMCHANGE 163
|
|
#SCROLL 1.01840490797546
|
|
1
|
|
#BPMCHANGE 166
|
|
#SCROLL 1
|
|
1
|
|
#BPMCHANGE 167
|
|
#SCROLL 0.994011976047904
|
|
1
|
|
#BPMCHANGE 168
|
|
#SCROLL 0.988095238095238
|
|
0,
|
|
#BPMCHANGE 177
|
|
#SCROLL 0.9378531073446328
|
|
1
|
|
#BPMCHANGE 174
|
|
#SCROLL 0.9540229885057472
|
|
1
|
|
#BPMCHANGE 167
|
|
#SCROLL 0.994011976047904
|
|
10,
|
|
#BPMCHANGE 169
|
|
#SCROLL 0.9822485207100592
|
|
1
|
|
#BPMCHANGE 173
|
|
#SCROLL 0.9595375722543352
|
|
1
|
|
#BPMCHANGE 172
|
|
#SCROLL 0.9651162790697676
|
|
1
|
|
#BPMCHANGE 170
|
|
#SCROLL 0.976470588235294
|
|
0,
|
|
#BPMCHANGE 168
|
|
#SCROLL 0.988095238095238
|
|
2
|
|
#BPMCHANGE 170
|
|
#SCROLL 0.976470588235294
|
|
02
|
|
#BPMCHANGE 166
|
|
#SCROLL 1
|
|
0,
|
|
#BPMCHANGE 170
|
|
#SCROLL 0.976470588235294
|
|
2
|
|
#BPMCHANGE 169
|
|
#SCROLL 0.9822485207100592
|
|
0
|
|
#BPMCHANGE 166
|
|
#SCROLL 1
|
|
2
|
|
#BPMCHANGE 161
|
|
#SCROLL 1.031055900621118
|
|
0,
|
|
#BPMCHANGE 175
|
|
#SCROLL 0.9485714285714286
|
|
20
|
|
#BPMCHANGE 170
|
|
#SCROLL 0.976470588235294
|
|
20
|
|
#BPMCHANGE 172
|
|
#SCROLL 0.9651162790697676
|
|
20
|
|
#BPMCHANGE 169
|
|
#SCROLL 0.9822485207100592
|
|
01,
|
|
#BPMCHANGE 172
|
|
#SCROLL 0.9651162790697676
|
|
0
|
|
#BPMCHANGE 168
|
|
#SCROLL 0.988095238095238
|
|
2
|
|
#BPMCHANGE 176
|
|
#SCROLL 0.9431818181818182
|
|
0
|
|
#BPMCHANGE 168
|
|
#SCROLL 0.988095238095238
|
|
1,
|
|
#BPMCHANGE 170
|
|
#SCROLL 0.976470588235294
|
|
2
|
|
#BPMCHANGE 169
|
|
#SCROLL 0.9822485207100592
|
|
02
|
|
#BPMCHANGE 167
|
|
#SCROLL 0.994011976047904
|
|
0,
|
|
#BPMCHANGE 165
|
|
#SCROLL 1.006060606060606
|
|
20
|
|
#BPMCHANGE 171
|
|
#SCROLL 0.9707602339181286
|
|
2
|
|
#BPMCHANGE 167
|
|
#SCROLL 0.994011976047904
|
|
0,
|
|
#BPMCHANGE 171
|
|
#SCROLL 0.9707602339181286
|
|
20
|
|
#BPMCHANGE 170
|
|
#SCROLL 0.976470588235294
|
|
20
|
|
#BPMCHANGE 170.5
|
|
#SCROLL 0.9736070381231672
|
|
2202,
|
|
00
|
|
#BPMCHANGE 171
|
|
#SCROLL 0.9707602339181286
|
|
201105,
|
|
00
|
|
#BPMCHANGE 168
|
|
#SCROLL 0.988095238095238
|
|
000008,
|
|
#BPMCHANGE 161
|
|
#SCROLL 1.031055900621118
|
|
00
|
|
#BPMCHANGE 185
|
|
#SCROLL 0.8972972972972973
|
|
0
|
|
#BPMCHANGE 161
|
|
#SCROLL 1.031055900621118
|
|
0,
|
|
#BPMCHANGE 174
|
|
#SCROLL 0.9540229885057472
|
|
1
|
|
#BPMCHANGE 168
|
|
#SCROLL 0.988095238095238
|
|
020,
|
|
10
|
|
#BPMCHANGE 166
|
|
#SCROLL 1
|
|
11,
|
|
#BPMCHANGE 172
|
|
#SCROLL 0.9651162790697676
|
|
10
|
|
#BPMCHANGE 170
|
|
#SCROLL 0.976470588235294
|
|
00
|
|
#BPMCHANGE 163
|
|
#SCROLL 1.01840490797546
|
|
20
|
|
#BPMCHANGE 172
|
|
#SCROLL 0.9651162790697676
|
|
01,
|
|
12
|
|
#BPMCHANGE 168
|
|
#SCROLL 0.988095238095238
|
|
11,
|
|
#BPMCHANGE 167
|
|
#SCROLL 0.994011976047904
|
|
1
|
|
#BPMCHANGE 169
|
|
#SCROLL 0.9822485207100592
|
|
0
|
|
#BPMCHANGE 171
|
|
#SCROLL 0.9707602339181286
|
|
2
|
|
#BPMCHANGE 166
|
|
#SCROLL 1
|
|
0,
|
|
2
|
|
#BPMCHANGE 165
|
|
#SCROLL 1.006060606060606
|
|
0
|
|
#BPMCHANGE 182
|
|
#SCROLL 0.912087912087912
|
|
2
|
|
#BPMCHANGE 169
|
|
#SCROLL 0.9822485207100592
|
|
2,
|
|
#BPMCHANGE 166
|
|
#SCROLL 1
|
|
1
|
|
#BPMCHANGE 170
|
|
#SCROLL 0.976470588235294
|
|
02
|
|
#BPMCHANGE 167
|
|
#SCROLL 0.994011976047904
|
|
0,
|
|
#BPMCHANGE 174
|
|
#SCROLL 0.9540229885057472
|
|
1
|
|
#BPMCHANGE 164
|
|
#SCROLL 1.0121951219512195
|
|
0
|
|
#BPMCHANGE 169
|
|
#SCROLL 0.9822485207100592
|
|
2
|
|
#BPMCHANGE 178
|
|
#SCROLL 0.9325842696629212
|
|
0,
|
|
#BPMCHANGE 170
|
|
#SCROLL 0.976470588235294
|
|
1
|
|
#BPMCHANGE 158
|
|
#SCROLL 1.0506329113924051
|
|
1
|
|
#BPMCHANGE 182
|
|
#SCROLL 0.912087912087912
|
|
1
|
|
#BPMCHANGE 153
|
|
#SCROLL 1.084967320261438
|
|
0,
|
|
#BPMCHANGE 191
|
|
#SCROLL 0.8691099476439791
|
|
1
|
|
#BPMCHANGE 167
|
|
#SCROLL 0.994011976047904
|
|
1
|
|
#BPMCHANGE 164
|
|
#SCROLL 1.0121951219512195
|
|
10,
|
|
#BPMCHANGE 170
|
|
#SCROLL 0.976470588235294
|
|
1112,
|
|
#BPMCHANGE 167
|
|
#SCROLL 0.994011976047904
|
|
1
|
|
#BPMCHANGE 169
|
|
#SCROLL 0.9822485207100592
|
|
1
|
|
#BPMCHANGE 175
|
|
#SCROLL 0.9485714285714286
|
|
1
|
|
#BPMCHANGE 176
|
|
#SCROLL 0.9431818181818182
|
|
0,
|
|
#BPMCHANGE 166
|
|
#SCROLL 1
|
|
1
|
|
#BPMCHANGE 169
|
|
#SCROLL 0.9822485207100592
|
|
1
|
|
#BPMCHANGE 166
|
|
#SCROLL 1
|
|
1
|
|
#BPMCHANGE 165
|
|
#SCROLL 1.006060606060606
|
|
0,
|
|
1
|
|
#BPMCHANGE 172
|
|
#SCROLL 0.9651162790697676
|
|
1
|
|
#BPMCHANGE 170
|
|
#SCROLL 0.976470588235294
|
|
1
|
|
#BPMCHANGE 158
|
|
#SCROLL 1.0506329113924051
|
|
2,
|
|
#BPMCHANGE 174
|
|
#SCROLL 0.9540229885057472
|
|
10
|
|
#BPMCHANGE 176
|
|
#SCROLL 0.9431818181818182
|
|
00
|
|
#BPMCHANGE 171
|
|
#SCROLL 0.9707602339181286
|
|
10
|
|
#BPMCHANGE 169
|
|
#SCROLL 0.9822485207100592
|
|
01,
|
|
#BPMCHANGE 168
|
|
#SCROLL 0.988095238095238
|
|
00
|
|
#BPMCHANGE 173
|
|
#SCROLL 0.9595375722543352
|
|
00
|
|
#BPMCHANGE 170
|
|
#SCROLL 0.976470588235294
|
|
10
|
|
#BPMCHANGE 171
|
|
#SCROLL 0.9707602339181286
|
|
01,
|
|
#BPMCHANGE 170
|
|
#SCROLL 0.976470588235294
|
|
0
|
|
#BPMCHANGE 171
|
|
#SCROLL 0.9707602339181286
|
|
0,
|
|
#BPMCHANGE 164
|
|
#SCROLL 1.0121951219512195
|
|
2
|
|
#BPMCHANGE 172
|
|
#SCROLL 0.9651162790697676
|
|
2
|
|
#BPMCHANGE 168
|
|
#SCROLL 0.988095238095238
|
|
2
|
|
#BPMCHANGE 175
|
|
#SCROLL 0.9485714285714286
|
|
2,
|
|
#BPMCHANGE 163
|
|
#SCROLL 1.01840490797546
|
|
1
|
|
#BPMCHANGE 171
|
|
#SCROLL 0.9707602339181286
|
|
2
|
|
#BPMCHANGE 174
|
|
#SCROLL 0.9540229885057472
|
|
1
|
|
#BPMCHANGE 168
|
|
#SCROLL 0.988095238095238
|
|
2,
|
|
#BPMCHANGE 174
|
|
#SCROLL 0.9540229885057472
|
|
1
|
|
#BPMCHANGE 172.5
|
|
#SCROLL 0.9623188405797102
|
|
01
|
|
#BPMCHANGE 166
|
|
#SCROLL 1
|
|
0,
|
|
#BPMCHANGE 169
|
|
#MEASURE 3/4
|
|
#SCROLL 0.9822485207100592
|
|
5
|
|
#BPMCHANGE 167
|
|
#SCROLL 0.994011976047904
|
|
00,
|
|
#MEASURE 4/4
|
|
81,
|
|
#BPMCHANGE 177
|
|
#SCROLL 0.9378531073446328
|
|
1
|
|
#BPMCHANGE 169
|
|
#SCROLL 0.9822485207100592
|
|
212,
|
|
#BPMCHANGE 171
|
|
#MEASURE 3/4
|
|
#SCROLL 0.9707602339181286
|
|
5
|
|
#BPMCHANGE 176
|
|
#SCROLL 0.9431818181818182
|
|
0
|
|
#BPMCHANGE 168
|
|
#SCROLL 0.988095238095238
|
|
0,
|
|
#BPMCHANGE 172
|
|
#MEASURE 4/4
|
|
#SCROLL 0.9651162790697676
|
|
81,
|
|
#BPMCHANGE 169
|
|
#SCROLL 0.9822485207100592
|
|
12
|
|
#BPMCHANGE 177
|
|
#SCROLL 0.9378531073446328
|
|
1
|
|
#BPMCHANGE 176
|
|
#SCROLL 0.9431818181818182
|
|
0,
|
|
#BPMCHANGE 170
|
|
#MEASURE 3/4
|
|
#SCROLL 0.976470588235294
|
|
5
|
|
#BPMCHANGE 165
|
|
#SCROLL 1.006060606060606
|
|
00,
|
|
#BPMCHANGE 171
|
|
#MEASURE 4/4
|
|
#SCROLL 0.9707602339181286
|
|
81,
|
|
1210,
|
|
#MEASURE 3/4
|
|
12
|
|
#BPMCHANGE 162
|
|
#SCROLL 1.0246913580246917
|
|
2,
|
|
#BPMCHANGE 169
|
|
#MEASURE 4/4
|
|
#SCROLL 0.9822485207100592
|
|
11,
|
|
10
|
|
#BPMCHANGE 175
|
|
#SCROLL 0.9485714285714286
|
|
0
|
|
#BPMCHANGE 166
|
|
#SCROLL 1
|
|
0,
|
|
#BPMCHANGE 175
|
|
#SCROLL 0.9485714285714286
|
|
1
|
|
#BPMCHANGE 168
|
|
#SCROLL 0.988095238095238
|
|
0
|
|
#BPMCHANGE 174
|
|
#SCROLL 0.9540229885057472
|
|
1
|
|
#BPMCHANGE 170
|
|
#SCROLL 0.976470588235294
|
|
0,
|
|
1
|
|
#BPMCHANGE 174
|
|
#SCROLL 0.9540229885057472
|
|
0
|
|
#BPMCHANGE 172
|
|
#SCROLL 0.9651162790697676
|
|
00,
|
|
#BPMCHANGE 169
|
|
#SCROLL 0.9822485207100592
|
|
1110,
|
|
11
|
|
#BPMCHANGE 168
|
|
#SCROLL 0.988095238095238
|
|
10,
|
|
4
|
|
#BPMCHANGE 179
|
|
#SCROLL 0.9273743016759776
|
|
0
|
|
#BPMCHANGE 168
|
|
#SCROLL 0.988095238095238
|
|
0
|
|
#BPMCHANGE 166
|
|
#SCROLL 1
|
|
0,
|
|
#BPMCHANGE 173
|
|
#SCROLL 0.9595375722543352
|
|
1
|
|
#BPMCHANGE 175
|
|
#SCROLL 0.9485714285714286
|
|
1,
|
|
#BPMCHANGE 172
|
|
#SCROLL 0.9651162790697676
|
|
11
|
|
#BPMCHANGE 168
|
|
#SCROLL 0.988095238095238
|
|
10,
|
|
#BPMCHANGE 169
|
|
#SCROLL 0.9822485207100592
|
|
11
|
|
#BPMCHANGE 173
|
|
#SCROLL 0.9595375722543352
|
|
1
|
|
#BPMCHANGE 170
|
|
#SCROLL 0.976470588235294
|
|
0,
|
|
#BPMCHANGE 168.5
|
|
#SCROLL 0.9851632047477744
|
|
22
|
|
#BPMCHANGE 166
|
|
#SCROLL 1
|
|
2
|
|
#BPMCHANGE 164
|
|
#SCROLL 1.0121951219512195
|
|
0,
|
|
#BPMCHANGE 170
|
|
#SCROLL 0.976470588235294
|
|
2
|
|
#BPMCHANGE 171
|
|
#SCROLL 0.9707602339181286
|
|
22
|
|
#BPMCHANGE 170
|
|
#SCROLL 0.976470588235294
|
|
0,
|
|
#BPMCHANGE 171
|
|
#SCROLL 0.9707602339181286
|
|
1
|
|
#BPMCHANGE 172
|
|
#SCROLL 0.9651162790697676
|
|
11
|
|
#BPMCHANGE 169
|
|
#SCROLL 0.9822485207100592
|
|
0,
|
|
#BPMCHANGE 173
|
|
#SCROLL 0.9595375722543352
|
|
1
|
|
#BPMCHANGE 171
|
|
#SCROLL 0.9707602339181286
|
|
1
|
|
#BPMCHANGE 169
|
|
#SCROLL 0.9822485207100592
|
|
1
|
|
#BPMCHANGE 170
|
|
#SCROLL 0.976470588235294
|
|
0,
|
|
#BPMCHANGE 166
|
|
#SCROLL 1
|
|
2
|
|
#BPMCHANGE 173
|
|
#SCROLL 0.9595375722543352
|
|
2
|
|
#BPMCHANGE 170
|
|
#SCROLL 0.976470588235294
|
|
20,
|
|
#BPMCHANGE 177
|
|
#SCROLL 0.9378531073446328
|
|
2
|
|
#BPMCHANGE 170
|
|
#SCROLL 0.976470588235294
|
|
2
|
|
#BPMCHANGE 172
|
|
#SCROLL 0.9651162790697676
|
|
25,
|
|
#BPMCHANGE 171
|
|
#SCROLL 0.9707602339181286
|
|
00
|
|
#BPMCHANGE 169
|
|
#SCROLL 0.9822485207100592
|
|
00
|
|
#BPMCHANGE 166
|
|
#SCROLL 1
|
|
00
|
|
#BPMCHANGE 180
|
|
#SCROLL 0.9222222222222224
|
|
08,
|
|
#BPMCHANGE 170
|
|
#SCROLL 0.976470588235294
|
|
0
|
|
#BPMCHANGE 168
|
|
#SCROLL 0.988095238095238
|
|
0
|
|
#BPMCHANGE 179
|
|
#SCROLL 0.9273743016759776
|
|
0
|
|
#BPMCHANGE 174
|
|
#SCROLL 0.9540229885057472
|
|
0,
|
|
#BPMCHANGE 170
|
|
#SCROLL 0.976470588235294
|
|
1
|
|
#BPMCHANGE 176
|
|
#SCROLL 0.9431818181818182
|
|
2
|
|
#BPMCHANGE 169
|
|
#SCROLL 0.9822485207100592
|
|
1
|
|
#BPMCHANGE 175
|
|
#SCROLL 0.9485714285714286
|
|
2,
|
|
1
|
|
#BPMCHANGE 174
|
|
#SCROLL 0.9540229885057472
|
|
01
|
|
#BPMCHANGE 169
|
|
#SCROLL 0.9822485207100592
|
|
0,
|
|
#BPMCHANGE 177
|
|
#MEASURE 3/4
|
|
#SCROLL 0.9378531073446328
|
|
5
|
|
#BPMCHANGE 168
|
|
#SCROLL 0.988095238095238
|
|
0
|
|
#BPMCHANGE 169
|
|
#SCROLL 0.9822485207100592
|
|
0,
|
|
#BPMCHANGE 165
|
|
#MEASURE 4/4
|
|
#SCROLL 1.006060606060606
|
|
8
|
|
#BPMCHANGE 166
|
|
#SCROLL 1
|
|
2
|
|
#BPMCHANGE 174
|
|
#SCROLL 0.9540229885057472
|
|
1
|
|
#BPMCHANGE 173
|
|
#SCROLL 0.9595375722543352
|
|
0,
|
|
1
|
|
#BPMCHANGE 167
|
|
#SCROLL 0.994011976047904
|
|
2
|
|
#BPMCHANGE 177
|
|
#SCROLL 0.9378531073446328
|
|
10,
|
|
#BPMCHANGE 163
|
|
#MEASURE 3/4
|
|
#SCROLL 1.01840490797546
|
|
1
|
|
#BPMCHANGE 168
|
|
#SCROLL 0.988095238095238
|
|
2
|
|
#BPMCHANGE 169
|
|
#SCROLL 0.9822485207100592
|
|
1,
|
|
#BPMCHANGE 168
|
|
#MEASURE 4/4
|
|
#SCROLL 0.988095238095238
|
|
12
|
|
#BPMCHANGE 177
|
|
#SCROLL 0.9378531073446328
|
|
1
|
|
#BPMCHANGE 169
|
|
#SCROLL 0.9822485207100592
|
|
0,
|
|
1
|
|
#BPMCHANGE 175
|
|
#SCROLL 0.9485714285714286
|
|
210,
|
|
#BPMCHANGE 169
|
|
#MEASURE 3/4
|
|
#SCROLL 0.9822485207100592
|
|
1
|
|
#BPMCHANGE 182
|
|
#SCROLL 0.912087912087912
|
|
2
|
|
#BPMCHANGE 166
|
|
#SCROLL 1
|
|
1,
|
|
#BPMCHANGE 171
|
|
#MEASURE 4/4
|
|
#SCROLL 0.9707602339181286
|
|
1
|
|
#BPMCHANGE 170
|
|
#SCROLL 0.976470588235294
|
|
2
|
|
#BPMCHANGE 168
|
|
#SCROLL 0.988095238095238
|
|
10,
|
|
#BPMCHANGE 171
|
|
#SCROLL 0.9707602339181286
|
|
1
|
|
#BPMCHANGE 178
|
|
#SCROLL 0.9325842696629212
|
|
210,
|
|
#BPMCHANGE 173
|
|
#SCROLL 0.9595375722543352
|
|
10
|
|
#BPMCHANGE 169
|
|
#SCROLL 0.9822485207100592
|
|
1
|
|
#BPMCHANGE 306
|
|
#SCROLL 0.5424836601307189
|
|
0,
|
|
#BPMCHANGE 170
|
|
#MEASURE 13/4
|
|
#SCROLL 0.976470588235294
|
|
7,
|
|
#BPMCHANGE 169
|
|
#MEASURE 4/4
|
|
#SCROLL 0.9822485207100592
|
|
08
|
|
#BPMCHANGE 161
|
|
#SCROLL 1.031055900621118
|
|
00
|
|
#BPMCHANGE 178
|
|
#SCROLL 0.9325842696629212
|
|
10
|
|
#BPMCHANGE 171
|
|
#SCROLL 0.9707602339181286
|
|
20,
|
|
1
|
|
#BPMCHANGE 169
|
|
#SCROLL 0.9822485207100592
|
|
01
|
|
#BPMCHANGE 166
|
|
#SCROLL 1
|
|
0,
|
|
#BPMCHANGE 171
|
|
#MEASURE 3/4
|
|
#SCROLL 0.9707602339181286
|
|
11
|
|
#BPMCHANGE 169
|
|
#SCROLL 0.9822485207100592
|
|
1,
|
|
#BPMCHANGE 175
|
|
#MEASURE 4/4
|
|
#SCROLL 0.9485714285714286
|
|
1
|
|
#BPMCHANGE 170
|
|
#SCROLL 0.976470588235294
|
|
02
|
|
#BPMCHANGE 177
|
|
#SCROLL 0.9378531073446328
|
|
0,
|
|
1
|
|
#BPMCHANGE 167.5
|
|
#SCROLL 0.991044776119403
|
|
02
|
|
#BPMCHANGE 169
|
|
#SCROLL 0.9822485207100592
|
|
0,
|
|
#BPMCHANGE 170
|
|
#MEASURE 3/4
|
|
#SCROLL 0.976470588235294
|
|
1
|
|
#BPMCHANGE 173
|
|
#SCROLL 0.9595375722543352
|
|
0
|
|
#BPMCHANGE 178
|
|
#SCROLL 0.9325842696629212
|
|
1,
|
|
#BPMCHANGE 164
|
|
#MEASURE 4/4
|
|
#SCROLL 1.0121951219512195
|
|
4
|
|
#BPMCHANGE 169
|
|
#SCROLL 0.9822485207100592
|
|
040,
|
|
4
|
|
#BPMCHANGE 165
|
|
#SCROLL 1.006060606060606
|
|
0
|
|
#BPMCHANGE 164
|
|
#SCROLL 1.0121951219512195
|
|
4
|
|
#BPMCHANGE 171
|
|
#SCROLL 0.9707602339181286
|
|
0,
|
|
#BPMCHANGE 169
|
|
#SCROLL 0.9822485207100592
|
|
4
|
|
#BPMCHANGE 171
|
|
#SCROLL 0.9707602339181286
|
|
4,
|
|
#BPMCHANGE 168
|
|
#SCROLL 0.988095238095238
|
|
4
|
|
#BPMCHANGE 175
|
|
#SCROLL 0.9485714285714286
|
|
0
|
|
#BPMCHANGE 174
|
|
#SCROLL 0.9540229885057472
|
|
2
|
|
#BPMCHANGE 169
|
|
#SCROLL 0.9822485207100592
|
|
0,
|
|
#BPMCHANGE 166
|
|
#SCROLL 1
|
|
1
|
|
#BPMCHANGE 174
|
|
#SCROLL 0.9540229885057472
|
|
2
|
|
#BPMCHANGE 169
|
|
#SCROLL 0.9822485207100592
|
|
1
|
|
#BPMCHANGE 175
|
|
#SCROLL 0.9485714285714286
|
|
0,
|
|
#BPMCHANGE 169
|
|
#SCROLL 0.9822485207100592
|
|
1
|
|
#BPMCHANGE 171
|
|
#SCROLL 0.9707602339181286
|
|
210,
|
|
12
|
|
#BPMCHANGE 163
|
|
#SCROLL 1.01840490797546
|
|
22,
|
|
#END
|
|
|
|
|
|
COURSE:Easy
|
|
LEVEL:2
|
|
BALLOON:1989
|
|
SCOREINIT:
|
|
SCOREDIFF:
|
|
NOTESDESIGNER0:Colin
|
|
|
|
|
|
#START
|
|
#BPMCHANGE 166
|
|
0,
|
|
#BPMCHANGE 163
|
|
#SCROLL 1.01840490797546
|
|
0,
|
|
#BPMCHANGE 165
|
|
#SCROLL 1.006060606060606
|
|
0
|
|
#BPMCHANGE 169
|
|
#SCROLL 0.9822485207100592
|
|
00
|
|
#BPMCHANGE 176
|
|
#SCROLL 0.9431818181818182
|
|
0,
|
|
#BPMCHANGE 156
|
|
#SCROLL 1.064102564102564
|
|
0
|
|
#BPMCHANGE 181
|
|
#SCROLL 0.9171270718232044
|
|
0
|
|
#BPMCHANGE 169
|
|
#SCROLL 0.9822485207100592
|
|
00,
|
|
#BPMCHANGE 170
|
|
#SCROLL 0.976470588235294
|
|
1,
|
|
#BPMCHANGE 169
|
|
#SCROLL 0.9822485207100592
|
|
1
|
|
#BPMCHANGE 165
|
|
#SCROLL 1.006060606060606
|
|
0,
|
|
#BPMCHANGE 172
|
|
#SCROLL 0.9651162790697676
|
|
1
|
|
#BPMCHANGE 168
|
|
#SCROLL 0.988095238095238
|
|
000,
|
|
#BPMCHANGE 173
|
|
#SCROLL 0.9595375722543352
|
|
1
|
|
#BPMCHANGE 165
|
|
#SCROLL 1.006060606060606
|
|
0
|
|
#BPMCHANGE 178
|
|
#SCROLL 0.9325842696629212
|
|
0
|
|
#BPMCHANGE 169
|
|
#SCROLL 0.9822485207100592
|
|
0,
|
|
1,
|
|
1
|
|
#BPMCHANGE 160
|
|
#SCROLL 1.0375
|
|
0
|
|
#BPMCHANGE 178
|
|
#SCROLL 0.9325842696629212
|
|
0
|
|
#BPMCHANGE 171
|
|
#SCROLL 0.9707602339181286
|
|
0,
|
|
1,
|
|
#BPMCHANGE 167
|
|
#SCROLL 0.994011976047904
|
|
1
|
|
#BPMCHANGE 165
|
|
#SCROLL 1.006060606060606
|
|
0
|
|
#BPMCHANGE 173
|
|
#SCROLL 0.9595375722543352
|
|
0
|
|
#BPMCHANGE 167
|
|
#SCROLL 0.994011976047904
|
|
0,
|
|
#BPMCHANGE 171
|
|
#SCROLL 0.9707602339181286
|
|
1
|
|
#BPMCHANGE 174
|
|
#SCROLL 0.9540229885057472
|
|
0
|
|
#BPMCHANGE 169
|
|
#SCROLL 0.9822485207100592
|
|
00,
|
|
#BPMCHANGE 166
|
|
#SCROLL 1
|
|
10
|
|
#BPMCHANGE 173
|
|
#SCROLL 0.9595375722543352
|
|
0
|
|
#BPMCHANGE 165
|
|
#SCROLL 1.006060606060606
|
|
0,
|
|
#BPMCHANGE 168
|
|
#SCROLL 0.988095238095238
|
|
1
|
|
#BPMCHANGE 173
|
|
#SCROLL 0.9595375722543352
|
|
0,
|
|
#BPMCHANGE 170
|
|
#SCROLL 0.976470588235294
|
|
10
|
|
#BPMCHANGE 172
|
|
#SCROLL 0.9651162790697676
|
|
0
|
|
#BPMCHANGE 168
|
|
#SCROLL 0.988095238095238
|
|
0,
|
|
#BPMCHANGE 177
|
|
#SCROLL 0.9378531073446328
|
|
1
|
|
#BPMCHANGE 165
|
|
#SCROLL 1.006060606060606
|
|
0
|
|
#BPMCHANGE 177
|
|
#SCROLL 0.9378531073446328
|
|
0
|
|
#BPMCHANGE 176
|
|
#SCROLL 0.9431818181818182
|
|
0,
|
|
#BPMCHANGE 163
|
|
#SCROLL 1.01840490797546
|
|
1
|
|
#BPMCHANGE 166
|
|
#SCROLL 1
|
|
0
|
|
#BPMCHANGE 167
|
|
#SCROLL 0.994011976047904
|
|
0
|
|
#BPMCHANGE 168
|
|
#SCROLL 0.988095238095238
|
|
0,
|
|
#BPMCHANGE 177
|
|
#SCROLL 0.9378531073446328
|
|
1
|
|
#BPMCHANGE 174
|
|
#SCROLL 0.9540229885057472
|
|
0
|
|
#BPMCHANGE 167
|
|
#SCROLL 0.994011976047904
|
|
00,
|
|
#BPMCHANGE 169
|
|
#SCROLL 0.9822485207100592
|
|
1
|
|
#BPMCHANGE 173
|
|
#SCROLL 0.9595375722543352
|
|
0
|
|
#BPMCHANGE 172
|
|
#SCROLL 0.9651162790697676
|
|
0
|
|
#BPMCHANGE 170
|
|
#SCROLL 0.976470588235294
|
|
0,
|
|
#BPMCHANGE 168
|
|
#SCROLL 0.988095238095238
|
|
2
|
|
#BPMCHANGE 170
|
|
#SCROLL 0.976470588235294
|
|
00
|
|
#BPMCHANGE 166
|
|
#SCROLL 1
|
|
0,
|
|
#BPMCHANGE 170
|
|
#SCROLL 0.976470588235294
|
|
2
|
|
#BPMCHANGE 169
|
|
#SCROLL 0.9822485207100592
|
|
0
|
|
#BPMCHANGE 166
|
|
#SCROLL 1
|
|
0
|
|
#BPMCHANGE 161
|
|
#SCROLL 1.031055900621118
|
|
0,
|
|
#BPMCHANGE 175
|
|
#SCROLL 0.9485714285714286
|
|
20
|
|
#BPMCHANGE 170
|
|
#SCROLL 0.976470588235294
|
|
00
|
|
#BPMCHANGE 172
|
|
#SCROLL 0.9651162790697676
|
|
20
|
|
#BPMCHANGE 169
|
|
#SCROLL 0.9822485207100592
|
|
01,
|
|
#BPMCHANGE 172
|
|
#SCROLL 0.9651162790697676
|
|
0
|
|
#BPMCHANGE 168
|
|
#SCROLL 0.988095238095238
|
|
2
|
|
#BPMCHANGE 176
|
|
#SCROLL 0.9431818181818182
|
|
0
|
|
#BPMCHANGE 168
|
|
#SCROLL 0.988095238095238
|
|
0,
|
|
#BPMCHANGE 170
|
|
#SCROLL 0.976470588235294
|
|
2
|
|
#BPMCHANGE 169
|
|
#SCROLL 0.9822485207100592
|
|
00
|
|
#BPMCHANGE 167
|
|
#SCROLL 0.994011976047904
|
|
0,
|
|
#BPMCHANGE 165
|
|
#SCROLL 1.006060606060606
|
|
20
|
|
#BPMCHANGE 171
|
|
#SCROLL 0.9707602339181286
|
|
0
|
|
#BPMCHANGE 167
|
|
#SCROLL 0.994011976047904
|
|
0,
|
|
#BPMCHANGE 171
|
|
#SCROLL 0.9707602339181286
|
|
20
|
|
#BPMCHANGE 170
|
|
#SCROLL 0.976470588235294
|
|
00
|
|
#BPMCHANGE 170.5
|
|
#SCROLL 0.9736070381231672
|
|
0202,
|
|
00
|
|
#BPMCHANGE 171
|
|
#SCROLL 0.9707602339181286
|
|
200105,
|
|
00
|
|
#BPMCHANGE 168
|
|
#SCROLL 0.988095238095238
|
|
000008,
|
|
#BPMCHANGE 161
|
|
#SCROLL 1.031055900621118
|
|
00
|
|
#BPMCHANGE 185
|
|
#SCROLL 0.8972972972972973
|
|
0
|
|
#BPMCHANGE 161
|
|
#SCROLL 1.031055900621118
|
|
0,
|
|
#BPMCHANGE 174
|
|
#SCROLL 0.9540229885057472
|
|
1
|
|
#BPMCHANGE 168
|
|
#SCROLL 0.988095238095238
|
|
000,
|
|
1
|
|
#BPMCHANGE 166
|
|
#SCROLL 1
|
|
1,
|
|
#BPMCHANGE 172
|
|
#SCROLL 0.9651162790697676
|
|
1
|
|
#BPMCHANGE 170
|
|
#SCROLL 0.976470588235294
|
|
0
|
|
#BPMCHANGE 163
|
|
#SCROLL 1.01840490797546
|
|
0
|
|
#BPMCHANGE 172
|
|
#SCROLL 0.9651162790697676
|
|
0,
|
|
1
|
|
#BPMCHANGE 168
|
|
#SCROLL 0.988095238095238
|
|
1,
|
|
#BPMCHANGE 167
|
|
#SCROLL 0.994011976047904
|
|
1
|
|
#BPMCHANGE 169
|
|
#SCROLL 0.9822485207100592
|
|
0
|
|
#BPMCHANGE 171
|
|
#SCROLL 0.9707602339181286
|
|
0
|
|
#BPMCHANGE 166
|
|
#SCROLL 1
|
|
0,
|
|
2
|
|
#BPMCHANGE 165
|
|
#SCROLL 1.006060606060606
|
|
0
|
|
#BPMCHANGE 182
|
|
#SCROLL 0.912087912087912
|
|
2
|
|
#BPMCHANGE 169
|
|
#SCROLL 0.9822485207100592
|
|
0,
|
|
#BPMCHANGE 166
|
|
#SCROLL 1
|
|
1
|
|
#BPMCHANGE 170
|
|
#SCROLL 0.976470588235294
|
|
02
|
|
#BPMCHANGE 167
|
|
#SCROLL 0.994011976047904
|
|
0,
|
|
#BPMCHANGE 174
|
|
#SCROLL 0.9540229885057472
|
|
1
|
|
#BPMCHANGE 164
|
|
#SCROLL 1.0121951219512195
|
|
0
|
|
#BPMCHANGE 169
|
|
#SCROLL 0.9822485207100592
|
|
2
|
|
#BPMCHANGE 178
|
|
#SCROLL 0.9325842696629212
|
|
0,
|
|
#BPMCHANGE 170
|
|
#SCROLL 0.976470588235294
|
|
1
|
|
#BPMCHANGE 158
|
|
#SCROLL 1.0506329113924051
|
|
0
|
|
#BPMCHANGE 182
|
|
#SCROLL 0.912087912087912
|
|
1
|
|
#BPMCHANGE 153
|
|
#SCROLL 1.084967320261438
|
|
0,
|
|
#BPMCHANGE 191
|
|
#SCROLL 0.8691099476439791
|
|
1
|
|
#BPMCHANGE 167
|
|
#SCROLL 0.994011976047904
|
|
0
|
|
#BPMCHANGE 164
|
|
#SCROLL 1.0121951219512195
|
|
10,
|
|
#BPMCHANGE 170
|
|
#SCROLL 0.976470588235294
|
|
0,
|
|
#BPMCHANGE 167
|
|
#SCROLL 0.994011976047904
|
|
0
|
|
#BPMCHANGE 169
|
|
#SCROLL 0.9822485207100592
|
|
0
|
|
#BPMCHANGE 175
|
|
#SCROLL 0.9485714285714286
|
|
0
|
|
#BPMCHANGE 176
|
|
#SCROLL 0.9431818181818182
|
|
0,
|
|
#BPMCHANGE 166
|
|
#SCROLL 1
|
|
1
|
|
#BPMCHANGE 169
|
|
#SCROLL 0.9822485207100592
|
|
0
|
|
#BPMCHANGE 166
|
|
#SCROLL 1
|
|
1
|
|
#BPMCHANGE 165
|
|
#SCROLL 1.006060606060606
|
|
0,
|
|
1
|
|
#BPMCHANGE 172
|
|
#SCROLL 0.9651162790697676
|
|
0
|
|
#BPMCHANGE 170
|
|
#SCROLL 0.976470588235294
|
|
1
|
|
#BPMCHANGE 158
|
|
#SCROLL 1.0506329113924051
|
|
0,
|
|
#BPMCHANGE 174
|
|
#SCROLL 0.9540229885057472
|
|
00
|
|
#BPMCHANGE 176
|
|
#SCROLL 0.9431818181818182
|
|
00
|
|
#BPMCHANGE 171
|
|
#SCROLL 0.9707602339181286
|
|
00
|
|
#BPMCHANGE 169
|
|
#SCROLL 0.9822485207100592
|
|
01,
|
|
#BPMCHANGE 168
|
|
#SCROLL 0.988095238095238
|
|
00
|
|
#BPMCHANGE 173
|
|
#SCROLL 0.9595375722543352
|
|
00
|
|
#BPMCHANGE 170
|
|
#SCROLL 0.976470588235294
|
|
10
|
|
#BPMCHANGE 171
|
|
#SCROLL 0.9707602339181286
|
|
01,
|
|
#BPMCHANGE 170
|
|
#SCROLL 0.976470588235294
|
|
0
|
|
#BPMCHANGE 171
|
|
#SCROLL 0.9707602339181286
|
|
0,
|
|
#BPMCHANGE 164
|
|
#SCROLL 1.0121951219512195
|
|
2
|
|
#BPMCHANGE 172
|
|
#SCROLL 0.9651162790697676
|
|
0
|
|
#BPMCHANGE 168
|
|
#SCROLL 0.988095238095238
|
|
0
|
|
#BPMCHANGE 175
|
|
#SCROLL 0.9485714285714286
|
|
2,
|
|
#BPMCHANGE 163
|
|
#SCROLL 1.01840490797546
|
|
1
|
|
#BPMCHANGE 171
|
|
#SCROLL 0.9707602339181286
|
|
0
|
|
#BPMCHANGE 174
|
|
#SCROLL 0.9540229885057472
|
|
1
|
|
#BPMCHANGE 168
|
|
#SCROLL 0.988095238095238
|
|
0,
|
|
#BPMCHANGE 174
|
|
#SCROLL 0.9540229885057472
|
|
1
|
|
#BPMCHANGE 172.5
|
|
#SCROLL 0.9623188405797102
|
|
00
|
|
#BPMCHANGE 166
|
|
#SCROLL 1
|
|
0,
|
|
#BPMCHANGE 169
|
|
#MEASURE 3/4
|
|
#SCROLL 0.9822485207100592
|
|
5
|
|
#BPMCHANGE 167
|
|
#SCROLL 0.994011976047904
|
|
00,
|
|
#MEASURE 4/4
|
|
81,
|
|
#BPMCHANGE 177
|
|
#SCROLL 0.9378531073446328
|
|
1
|
|
#BPMCHANGE 169
|
|
#SCROLL 0.9822485207100592
|
|
000,
|
|
#BPMCHANGE 171
|
|
#MEASURE 3/4
|
|
#SCROLL 0.9707602339181286
|
|
5
|
|
#BPMCHANGE 176
|
|
#SCROLL 0.9431818181818182
|
|
0
|
|
#BPMCHANGE 168
|
|
#SCROLL 0.988095238095238
|
|
0,
|
|
#BPMCHANGE 172
|
|
#MEASURE 4/4
|
|
#SCROLL 0.9651162790697676
|
|
81,
|
|
#BPMCHANGE 169
|
|
#SCROLL 0.9822485207100592
|
|
10
|
|
#BPMCHANGE 177
|
|
#SCROLL 0.9378531073446328
|
|
0
|
|
#BPMCHANGE 176
|
|
#SCROLL 0.9431818181818182
|
|
0,
|
|
#BPMCHANGE 170
|
|
#MEASURE 3/4
|
|
#SCROLL 0.976470588235294
|
|
5
|
|
#BPMCHANGE 165
|
|
#SCROLL 1.006060606060606
|
|
00,
|
|
#BPMCHANGE 171
|
|
#MEASURE 4/4
|
|
#SCROLL 0.9707602339181286
|
|
81,
|
|
1,
|
|
#MEASURE 3/4
|
|
10
|
|
#BPMCHANGE 162
|
|
#SCROLL 1.0246913580246917
|
|
2,
|
|
#BPMCHANGE 169
|
|
#MEASURE 4/4
|
|
#SCROLL 0.9822485207100592
|
|
1,
|
|
10
|
|
#BPMCHANGE 175
|
|
#SCROLL 0.9485714285714286
|
|
0
|
|
#BPMCHANGE 166
|
|
#SCROLL 1
|
|
0,
|
|
#BPMCHANGE 175
|
|
#SCROLL 0.9485714285714286
|
|
1
|
|
#BPMCHANGE 168
|
|
#SCROLL 0.988095238095238
|
|
0
|
|
#BPMCHANGE 174
|
|
#SCROLL 0.9540229885057472
|
|
0
|
|
#BPMCHANGE 170
|
|
#SCROLL 0.976470588235294
|
|
0,
|
|
1
|
|
#BPMCHANGE 174
|
|
#SCROLL 0.9540229885057472
|
|
0
|
|
#BPMCHANGE 172
|
|
#SCROLL 0.9651162790697676
|
|
00,
|
|
#BPMCHANGE 169
|
|
#SCROLL 0.9822485207100592
|
|
11,
|
|
1
|
|
#BPMCHANGE 168
|
|
#SCROLL 0.988095238095238
|
|
1,
|
|
4
|
|
#BPMCHANGE 179
|
|
#SCROLL 0.9273743016759776
|
|
0
|
|
#BPMCHANGE 168
|
|
#SCROLL 0.988095238095238
|
|
0
|
|
#BPMCHANGE 166
|
|
#SCROLL 1
|
|
0,
|
|
#BPMCHANGE 173
|
|
#SCROLL 0.9595375722543352
|
|
1
|
|
#BPMCHANGE 175
|
|
#SCROLL 0.9485714285714286
|
|
0,
|
|
#BPMCHANGE 172
|
|
#SCROLL 0.9651162790697676
|
|
1
|
|
#BPMCHANGE 168
|
|
#SCROLL 0.988095238095238
|
|
0,
|
|
#BPMCHANGE 169
|
|
#SCROLL 0.9822485207100592
|
|
10
|
|
#BPMCHANGE 173
|
|
#SCROLL 0.9595375722543352
|
|
1
|
|
#BPMCHANGE 170
|
|
#SCROLL 0.976470588235294
|
|
0,
|
|
#BPMCHANGE 168.5
|
|
#SCROLL 0.9851632047477744
|
|
20
|
|
#BPMCHANGE 166
|
|
#SCROLL 1
|
|
2
|
|
#BPMCHANGE 164
|
|
#SCROLL 1.0121951219512195
|
|
0,
|
|
#BPMCHANGE 170
|
|
#SCROLL 0.976470588235294
|
|
2
|
|
#BPMCHANGE 171
|
|
#SCROLL 0.9707602339181286
|
|
00
|
|
#BPMCHANGE 170
|
|
#SCROLL 0.976470588235294
|
|
0,
|
|
#BPMCHANGE 171
|
|
#SCROLL 0.9707602339181286
|
|
1
|
|
#BPMCHANGE 172
|
|
#SCROLL 0.9651162790697676
|
|
01
|
|
#BPMCHANGE 169
|
|
#SCROLL 0.9822485207100592
|
|
0,
|
|
#BPMCHANGE 173
|
|
#SCROLL 0.9595375722543352
|
|
1
|
|
#BPMCHANGE 171
|
|
#SCROLL 0.9707602339181286
|
|
0
|
|
#BPMCHANGE 169
|
|
#SCROLL 0.9822485207100592
|
|
1
|
|
#BPMCHANGE 170
|
|
#SCROLL 0.976470588235294
|
|
0,
|
|
#BPMCHANGE 166
|
|
#SCROLL 1
|
|
2
|
|
#BPMCHANGE 173
|
|
#SCROLL 0.9595375722543352
|
|
0
|
|
#BPMCHANGE 170
|
|
#SCROLL 0.976470588235294
|
|
20,
|
|
#BPMCHANGE 177
|
|
#SCROLL 0.9378531073446328
|
|
2
|
|
#BPMCHANGE 170
|
|
#SCROLL 0.976470588235294
|
|
0
|
|
#BPMCHANGE 172
|
|
#SCROLL 0.9651162790697676
|
|
25,
|
|
#BPMCHANGE 171
|
|
#SCROLL 0.9707602339181286
|
|
00
|
|
#BPMCHANGE 169
|
|
#SCROLL 0.9822485207100592
|
|
00
|
|
#BPMCHANGE 166
|
|
#SCROLL 1
|
|
00
|
|
#BPMCHANGE 180
|
|
#SCROLL 0.9222222222222224
|
|
08,
|
|
#BPMCHANGE 170
|
|
#SCROLL 0.976470588235294
|
|
0
|
|
#BPMCHANGE 168
|
|
#SCROLL 0.988095238095238
|
|
0
|
|
#BPMCHANGE 179
|
|
#SCROLL 0.9273743016759776
|
|
0
|
|
#BPMCHANGE 174
|
|
#SCROLL 0.9540229885057472
|
|
0,
|
|
#BPMCHANGE 170
|
|
#SCROLL 0.976470588235294
|
|
1
|
|
#BPMCHANGE 176
|
|
#SCROLL 0.9431818181818182
|
|
0
|
|
#BPMCHANGE 169
|
|
#SCROLL 0.9822485207100592
|
|
1
|
|
#BPMCHANGE 175
|
|
#SCROLL 0.9485714285714286
|
|
0,
|
|
1
|
|
#BPMCHANGE 174
|
|
#SCROLL 0.9540229885057472
|
|
00
|
|
#BPMCHANGE 169
|
|
#SCROLL 0.9822485207100592
|
|
0,
|
|
#BPMCHANGE 177
|
|
#MEASURE 3/4
|
|
#SCROLL 0.9378531073446328
|
|
5
|
|
#BPMCHANGE 168
|
|
#SCROLL 0.988095238095238
|
|
0
|
|
#BPMCHANGE 169
|
|
#SCROLL 0.9822485207100592
|
|
0,
|
|
#BPMCHANGE 165
|
|
#MEASURE 4/4
|
|
#SCROLL 1.006060606060606
|
|
8
|
|
#BPMCHANGE 166
|
|
#SCROLL 1
|
|
0
|
|
#BPMCHANGE 174
|
|
#SCROLL 0.9540229885057472
|
|
1
|
|
#BPMCHANGE 173
|
|
#SCROLL 0.9595375722543352
|
|
0,
|
|
1
|
|
#BPMCHANGE 167
|
|
#SCROLL 0.994011976047904
|
|
0
|
|
#BPMCHANGE 177
|
|
#SCROLL 0.9378531073446328
|
|
00,
|
|
#BPMCHANGE 163
|
|
#MEASURE 3/4
|
|
#SCROLL 1.01840490797546
|
|
1
|
|
#BPMCHANGE 168
|
|
#SCROLL 0.988095238095238
|
|
0
|
|
#BPMCHANGE 169
|
|
#SCROLL 0.9822485207100592
|
|
1,
|
|
#BPMCHANGE 168
|
|
#MEASURE 4/4
|
|
#SCROLL 0.988095238095238
|
|
02
|
|
#BPMCHANGE 177
|
|
#SCROLL 0.9378531073446328
|
|
1
|
|
#BPMCHANGE 169
|
|
#SCROLL 0.9822485207100592
|
|
0,
|
|
1
|
|
#BPMCHANGE 175
|
|
#SCROLL 0.9485714285714286
|
|
010,
|
|
#BPMCHANGE 169
|
|
#MEASURE 3/4
|
|
#SCROLL 0.9822485207100592
|
|
1
|
|
#BPMCHANGE 182
|
|
#SCROLL 0.912087912087912
|
|
0
|
|
#BPMCHANGE 166
|
|
#SCROLL 1
|
|
1,
|
|
#BPMCHANGE 171
|
|
#MEASURE 4/4
|
|
#SCROLL 0.9707602339181286
|
|
1
|
|
#BPMCHANGE 170
|
|
#SCROLL 0.976470588235294
|
|
0
|
|
#BPMCHANGE 168
|
|
#SCROLL 0.988095238095238
|
|
10,
|
|
#BPMCHANGE 171
|
|
#SCROLL 0.9707602339181286
|
|
1
|
|
#BPMCHANGE 178
|
|
#SCROLL 0.9325842696629212
|
|
010,
|
|
#BPMCHANGE 173
|
|
#SCROLL 0.9595375722543352
|
|
10
|
|
#BPMCHANGE 169
|
|
#SCROLL 0.9822485207100592
|
|
1
|
|
#BPMCHANGE 306
|
|
#SCROLL 0.5424836601307189
|
|
0,
|
|
#BPMCHANGE 170
|
|
#MEASURE 13/4
|
|
#SCROLL 0.976470588235294
|
|
7,
|
|
#BPMCHANGE 169
|
|
#MEASURE 4/4
|
|
#SCROLL 0.9822485207100592
|
|
08
|
|
#BPMCHANGE 161
|
|
#SCROLL 1.031055900621118
|
|
00
|
|
#BPMCHANGE 178
|
|
#SCROLL 0.9325842696629212
|
|
10
|
|
#BPMCHANGE 171
|
|
#SCROLL 0.9707602339181286
|
|
00,
|
|
1
|
|
#BPMCHANGE 169
|
|
#SCROLL 0.9822485207100592
|
|
01
|
|
#BPMCHANGE 166
|
|
#SCROLL 1
|
|
0,
|
|
#BPMCHANGE 171
|
|
#MEASURE 3/4
|
|
#SCROLL 0.9707602339181286
|
|
10
|
|
#BPMCHANGE 169
|
|
#SCROLL 0.9822485207100592
|
|
0,
|
|
#BPMCHANGE 175
|
|
#MEASURE 4/4
|
|
#SCROLL 0.9485714285714286
|
|
1
|
|
#BPMCHANGE 170
|
|
#SCROLL 0.976470588235294
|
|
02
|
|
#BPMCHANGE 177
|
|
#SCROLL 0.9378531073446328
|
|
0,
|
|
1
|
|
#BPMCHANGE 167.5
|
|
#SCROLL 0.991044776119403
|
|
02
|
|
#BPMCHANGE 169
|
|
#SCROLL 0.9822485207100592
|
|
0,
|
|
#BPMCHANGE 170
|
|
#MEASURE 3/4
|
|
#SCROLL 0.976470588235294
|
|
1
|
|
#BPMCHANGE 173
|
|
#SCROLL 0.9595375722543352
|
|
0
|
|
#BPMCHANGE 178
|
|
#SCROLL 0.9325842696629212
|
|
1,
|
|
#BPMCHANGE 164
|
|
#MEASURE 4/4
|
|
#SCROLL 1.0121951219512195
|
|
4
|
|
#BPMCHANGE 169
|
|
#SCROLL 0.9822485207100592
|
|
040,
|
|
4
|
|
#BPMCHANGE 165
|
|
#SCROLL 1.006060606060606
|
|
0
|
|
#BPMCHANGE 164
|
|
#SCROLL 1.0121951219512195
|
|
4
|
|
#BPMCHANGE 171
|
|
#SCROLL 0.9707602339181286
|
|
0,
|
|
#BPMCHANGE 169
|
|
#SCROLL 0.9822485207100592
|
|
4
|
|
#BPMCHANGE 171
|
|
#SCROLL 0.9707602339181286
|
|
4,
|
|
#BPMCHANGE 168
|
|
#SCROLL 0.988095238095238
|
|
4
|
|
#BPMCHANGE 175
|
|
#SCROLL 0.9485714285714286
|
|
0
|
|
#BPMCHANGE 174
|
|
#SCROLL 0.9540229885057472
|
|
2
|
|
#BPMCHANGE 169
|
|
#SCROLL 0.9822485207100592
|
|
0,
|
|
#BPMCHANGE 166
|
|
#SCROLL 1
|
|
1
|
|
#BPMCHANGE 174
|
|
#SCROLL 0.9540229885057472
|
|
0
|
|
#BPMCHANGE 169
|
|
#SCROLL 0.9822485207100592
|
|
1
|
|
#BPMCHANGE 175
|
|
#SCROLL 0.9485714285714286
|
|
0,
|
|
#BPMCHANGE 169
|
|
#SCROLL 0.9822485207100592
|
|
1
|
|
#BPMCHANGE 171
|
|
#SCROLL 0.9707602339181286
|
|
010,
|
|
10
|
|
#BPMCHANGE 163
|
|
#SCROLL 1.01840490797546
|
|
02,
|
|
#END
|