generated from DragonRatTiger/Custom-Charts
271 lines
2.9 KiB
Plaintext
271 lines
2.9 KiB
Plaintext
TITLE:LILAC
|
|
SUBTITLE:--IU
|
|
BPM:115
|
|
WAVE:LILAC.ogg
|
|
OFFSET:-0.680
|
|
DEMOSTART:41.636
|
|
MAKER:Colin
|
|
|
|
COURSE:Edit
|
|
LEVEL:8
|
|
BALLOON:
|
|
SCOREINIT:
|
|
SCOREDIFF:
|
|
NOTESDESIGNER4:Colin
|
|
|
|
|
|
#START
|
|
1212021112112211,
|
|
1212021112112221,
|
|
1212021112112211,
|
|
1212021112112221,
|
|
1001202210102112,
|
|
1011202210102111,
|
|
2001201010112101,
|
|
1201201050802211,
|
|
1012221112112211,
|
|
2001201050802111,
|
|
1021202211012022,
|
|
1001202111012111,
|
|
2011221120112050,
|
|
0080211010012012,
|
|
1101201211221015,
|
|
0801201120122210,
|
|
2022112010221020,
|
|
1011202210210022,
|
|
2111,
|
|
1000000021112000,
|
|
#GOGOSTART
|
|
1011201111112022,
|
|
1021221122121120,
|
|
1021202122112020,
|
|
1021212011221121,
|
|
1011201111112022,
|
|
1021021000500000,
|
|
0008,
|
|
#GOGOEND
|
|
2000000000001111,
|
|
#GOGOSTART
|
|
1011201111112022,
|
|
1021221122121120,
|
|
1021202122112020,
|
|
1021212011221121,
|
|
1011201111112022,
|
|
1021221122121120,
|
|
1021202122112020,
|
|
#GOGOEND
|
|
1000000011012111,
|
|
#END
|
|
|
|
|
|
COURSE:Oni
|
|
LEVEL:7
|
|
BALLOON:
|
|
SCOREINIT:
|
|
SCOREDIFF:
|
|
NOTESDESIGNER3:Colin
|
|
|
|
|
|
#START
|
|
1012021011202212,
|
|
1012021011202212,
|
|
1012021011202212,
|
|
1012021111201210,
|
|
1002102211221012,
|
|
1011205008101210,
|
|
1001201210122101,
|
|
2011201050000080,
|
|
1012021012021010,
|
|
2001201121112210,
|
|
1021021012050822,
|
|
1021005000008000,
|
|
1011221010112020,
|
|
2211200010210021,
|
|
2210200000012021,
|
|
1122100020002000,
|
|
1011200020002111,
|
|
1012102010210210,
|
|
1111,
|
|
1000000000102002,
|
|
#GOGOSTART
|
|
1011200000122210,
|
|
2021005000801210,
|
|
2021012010001010,
|
|
1021101220221120,
|
|
1012112020221120,
|
|
2021021000500000,
|
|
00000802,
|
|
#GOGOEND
|
|
50000008,
|
|
#GOGOSTART
|
|
1011202210121011,
|
|
2021112022101210,
|
|
2021112010102010,
|
|
1021101220221122,
|
|
1011202210121011,
|
|
2021112022101210,
|
|
2021112010102010,
|
|
#GOGOEND
|
|
1021101220221122,
|
|
#END
|
|
|
|
|
|
COURSE:Hard
|
|
LEVEL:6
|
|
BALLOON:
|
|
SCOREINIT:
|
|
SCOREDIFF:
|
|
NOTESDESIGNER2:Colin
|
|
|
|
|
|
#START
|
|
1111001110201111,
|
|
1111001110201111,
|
|
1111001110201111,
|
|
1111001110201111,
|
|
1002200010022000,
|
|
1002205000802000,
|
|
1002200010022000,
|
|
1002200050000080,
|
|
1102200011022000,
|
|
1102200010022000,
|
|
1002200010022000,
|
|
50000008,
|
|
1011112010111110,
|
|
1011112010111110,
|
|
1011112010111110,
|
|
1011112010111110,
|
|
1111,
|
|
1111,
|
|
1111,
|
|
2,
|
|
#GOGOSTART
|
|
1011101110222010,
|
|
2022025000801010,
|
|
1011015000802020,
|
|
2022025000801000,
|
|
1011101110222020,
|
|
1011011000500000,
|
|
0008,
|
|
#GOGOEND
|
|
2,
|
|
#GOGOSTART
|
|
1011101110222010,
|
|
2022500000801010,
|
|
1001101050802020,
|
|
2022025000801000,
|
|
1011101110222020,
|
|
1011011000000000,
|
|
50000800,
|
|
#GOGOEND
|
|
2,
|
|
#END
|
|
|
|
|
|
COURSE:Normal
|
|
LEVEL:5
|
|
BALLOON:
|
|
SCOREINIT:
|
|
SCOREDIFF:
|
|
NOTESDESIGNER1:Colin
|
|
|
|
#START
|
|
1,
|
|
1,
|
|
1,
|
|
1,
|
|
11201021,
|
|
11201021,
|
|
11201021,
|
|
11201021,
|
|
11201021,
|
|
11201021,
|
|
11201021,
|
|
11201021,
|
|
1111,
|
|
1111,
|
|
1225,
|
|
08101010,
|
|
1111,
|
|
1111,
|
|
1111,
|
|
#GOGOSTART
|
|
2,
|
|
11201110,
|
|
1001005000080000,
|
|
1122,
|
|
10101058,
|
|
11201110,
|
|
1001001000500000,
|
|
0008,
|
|
#GOGOEND
|
|
2,
|
|
#GOGOSTART
|
|
11201110,
|
|
11201110,
|
|
11201110,
|
|
11201110,
|
|
11201110,
|
|
11201110,
|
|
1,
|
|
#GOGOEND
|
|
2,
|
|
#END
|
|
|
|
|
|
COURSE:Easy
|
|
LEVEL:2
|
|
BALLOON:
|
|
SCOREINIT:
|
|
SCOREDIFF:
|
|
NOTESDESIGNER0:Colin
|
|
|
|
|
|
#START
|
|
1,
|
|
1,
|
|
1,
|
|
1,
|
|
2,
|
|
2,
|
|
2,
|
|
2,
|
|
22,
|
|
22,
|
|
22,
|
|
22,
|
|
5,
|
|
0,
|
|
08,
|
|
0,
|
|
11,
|
|
11,
|
|
11,
|
|
1,
|
|
#GOGOSTART
|
|
2222,
|
|
2002005000800000,
|
|
50000800,
|
|
50000800,
|
|
5822,
|
|
50008500,
|
|
00000800,
|
|
#GOGOEND
|
|
1,
|
|
#GOGOSTART
|
|
11,
|
|
11,
|
|
11,
|
|
11,
|
|
11,
|
|
11,
|
|
#GOGOEND
|
|
1,
|
|
#END
|
|
|
|
|
|
|
|
|
|
|
|
|