generated from DragonRatTiger/Custom-Charts
1967 lines
22 KiB
Plaintext
1967 lines
22 KiB
Plaintext
TITLE:Like Him
|
|
SUBTITLE:--Tyler, The Creator
|
|
TITLEJA:Like Him
|
|
SUBTITLEJA:Tyler, The Creator
|
|
PREIMAGE:Like Him.png
|
|
WAVE:Like Him.ogg
|
|
BPM:96
|
|
OFFSET:-0.02
|
|
DEMOSTART:100.363
|
|
GENRE:J-POP
|
|
MAKER:Colin
|
|
|
|
COURSE:Easy
|
|
LEVEL:1
|
|
SCOREINIT:
|
|
SCOREDIFF:
|
|
NOTESDESIGNER0:Colin
|
|
|
|
#START
|
|
#MEASURE 3/4
|
|
#SCROLL 2
|
|
000,
|
|
#MEASURE 5/4
|
|
#BPMCHANGE 86
|
|
#SCROLL 2.23256
|
|
200000000000000000000000
|
|
#BPMCHANGE 79
|
|
#SCROLL 2.43038
|
|
00000000000000
|
|
#BPMCHANGE 49
|
|
#SCROLL 3.91837
|
|
0
|
|
#BPMCHANGE 66
|
|
#SCROLL 2.90909
|
|
0,
|
|
#MEASURE 3/4
|
|
#BPMCHANGE 32
|
|
#SCROLL 6
|
|
2000
|
|
#BPMCHANGE 36
|
|
#SCROLL 5.33333
|
|
000
|
|
#BPMCHANGE 22.5
|
|
#SCROLL 8.53333
|
|
0
|
|
#BPMCHANGE 31.5
|
|
#SCROLL 6.09524
|
|
2000
|
|
#BPMCHANGE 48
|
|
#SCROLL 4
|
|
0000
|
|
#BPMCHANGE 45
|
|
#SCROLL 4.26667
|
|
00500000,
|
|
#MEASURE 9/16
|
|
#BPMCHANGE 48.5
|
|
#SCROLL 3.95876
|
|
000000
|
|
#BPMCHANGE 45.5
|
|
#SCROLL 4.21978
|
|
80
|
|
#BPMCHANGE 46.5
|
|
#SCROLL 4.12903
|
|
0,
|
|
#MEASURE 6/8
|
|
#BPMCHANGE 96
|
|
#SCROLL 2
|
|
10000000000
|
|
#BPMCHANGE 76
|
|
#SCROLL 2.52632
|
|
0,
|
|
#BPMCHANGE 96
|
|
#SCROLL 2
|
|
100000
|
|
#BPMCHANGE 108
|
|
#SCROLL 1.77778
|
|
0000
|
|
#BPMCHANGE 112
|
|
#SCROLL 1.71429
|
|
0
|
|
#BPMCHANGE 47
|
|
#SCROLL 4.08511
|
|
0,
|
|
#BPMCHANGE 96
|
|
#SCROLL 2
|
|
100,
|
|
10000000000
|
|
#BPMCHANGE 70
|
|
#SCROLL 2.74286
|
|
0,
|
|
#BPMCHANGE 96
|
|
#SCROLL 2
|
|
10000000000000
|
|
#BPMCHANGE 69
|
|
#SCROLL 2.78261
|
|
00
|
|
#BPMCHANGE 101
|
|
#SCROLL 1.90099
|
|
000
|
|
#BPMCHANGE 117
|
|
#SCROLL 1.64103
|
|
000
|
|
#BPMCHANGE 70
|
|
#SCROLL 2.74286
|
|
00,
|
|
#BPMCHANGE 96
|
|
#SCROLL 2
|
|
10000000
|
|
#BPMCHANGE 125
|
|
#SCROLL 1.536
|
|
00
|
|
#BPMCHANGE 93
|
|
#SCROLL 2.06452
|
|
0
|
|
#BPMCHANGE 51
|
|
#SCROLL 3.76471
|
|
0,
|
|
#BPMCHANGE 96
|
|
#SCROLL 2
|
|
10000
|
|
#BPMCHANGE 100
|
|
#SCROLL 1.92
|
|
0,
|
|
#BPMCHANGE 96
|
|
#SCROLL 2
|
|
1000000000
|
|
#BPMCHANGE 76
|
|
#SCROLL 2.52632
|
|
0
|
|
#BPMCHANGE 89
|
|
#SCROLL 2.1573
|
|
0,
|
|
#BPMCHANGE 96
|
|
#SCROLL 2
|
|
20000
|
|
#BPMCHANGE 87
|
|
#SCROLL 2.2069
|
|
0,
|
|
#BPMCHANGE 96
|
|
#SCROLL 2
|
|
20000000
|
|
#BPMCHANGE 115
|
|
#SCROLL 1.66957
|
|
00
|
|
#BPMCHANGE 104
|
|
#SCROLL 1.84615
|
|
0
|
|
#BPMCHANGE 50
|
|
#SCROLL 3.84
|
|
0,
|
|
#BPMCHANGE 96
|
|
#SCROLL 2
|
|
20000
|
|
#BPMCHANGE 108
|
|
#SCROLL 1.77778
|
|
0,
|
|
#BPMCHANGE 96
|
|
#SCROLL 2
|
|
20000
|
|
#BPMCHANGE 76
|
|
#SCROLL 2.52632
|
|
0,
|
|
#BPMCHANGE 96
|
|
#SCROLL 2
|
|
2000
|
|
#BPMCHANGE 97
|
|
#SCROLL 1.97938
|
|
0
|
|
#BPMCHANGE 99
|
|
#SCROLL 1.93939
|
|
0,
|
|
#MEASURE 11/16
|
|
#BPMCHANGE 96
|
|
#SCROLL 2
|
|
20000000
|
|
#BPMCHANGE 79
|
|
#SCROLL 2.43038
|
|
0000
|
|
#BPMCHANGE 82
|
|
#SCROLL 2.34146
|
|
00000
|
|
#BPMCHANGE 72
|
|
#SCROLL 2.66667
|
|
0
|
|
#BPMCHANGE 81
|
|
#SCROLL 2.37037
|
|
00
|
|
#BPMCHANGE 72
|
|
#SCROLL 2.66667
|
|
0
|
|
#BPMCHANGE 80
|
|
#SCROLL 2.4
|
|
0,
|
|
#MEASURE 6/8
|
|
#BPMCHANGE 96
|
|
#SCROLL 2
|
|
30000
|
|
#BPMCHANGE 109
|
|
#SCROLL 1.76147
|
|
0,
|
|
#BPMCHANGE 96
|
|
#SCROLL 2
|
|
000,
|
|
#GOGOSTART
|
|
10010
|
|
#BPMCHANGE 107
|
|
#SCROLL 1.79439
|
|
0,
|
|
#BPMCHANGE 96
|
|
#SCROLL 2
|
|
10000
|
|
#BPMCHANGE 104
|
|
#SCROLL 1.84615
|
|
0,
|
|
#BPMCHANGE 96
|
|
#SCROLL 2
|
|
10010
|
|
#BPMCHANGE 111
|
|
#SCROLL 1.72973
|
|
1,
|
|
#BPMCHANGE 96
|
|
#SCROLL 2
|
|
10000
|
|
#BPMCHANGE 101
|
|
#SCROLL 1.90099
|
|
0,
|
|
#BPMCHANGE 96
|
|
#SCROLL 2
|
|
20020
|
|
#BPMCHANGE 108
|
|
#SCROLL 1.77778
|
|
0,
|
|
#BPMCHANGE 96
|
|
#SCROLL 2
|
|
200,
|
|
20000
|
|
#BPMCHANGE 117
|
|
#SCROLL 1.64103
|
|
2,
|
|
#BPMCHANGE 96
|
|
#SCROLL 2
|
|
20000
|
|
#BPMCHANGE 100
|
|
#SCROLL 1.92
|
|
0,
|
|
#GOGOEND
|
|
#BPMCHANGE 96
|
|
#SCROLL 2
|
|
000,
|
|
,
|
|
00000
|
|
#BPMCHANGE 129
|
|
#SCROLL 1.48837
|
|
0,
|
|
#BPMCHANGE 97
|
|
#SCROLL 1.97938
|
|
200,
|
|
#BPMCHANGE 28
|
|
#SCROLL 6.85714
|
|
00000
|
|
#BPMCHANGE 26.5
|
|
#SCROLL 7.24528
|
|
0,
|
|
#MEASURE 3/8
|
|
#BPMCHANGE 105
|
|
#SCROLL 1.82857
|
|
00
|
|
#BPMCHANGE 106
|
|
#SCROLL 1.81132
|
|
0
|
|
#BPMCHANGE 95
|
|
#SCROLL 2.02105
|
|
0
|
|
#BPMCHANGE 99
|
|
#SCROLL 1.93939
|
|
00,
|
|
#MEASURE 6/8
|
|
#BPMCHANGE 96
|
|
#SCROLL 2
|
|
30000000000010000000000
|
|
#BPMCHANGE 155
|
|
#SCROLL 1.23871
|
|
0,
|
|
#BPMCHANGE 96
|
|
#SCROLL 2
|
|
10000
|
|
#BPMCHANGE 104
|
|
#SCROLL 1.84615
|
|
0,
|
|
#BPMCHANGE 96
|
|
#SCROLL 2
|
|
20020
|
|
#BPMCHANGE 111
|
|
#SCROLL 1.72973
|
|
0,
|
|
#BPMCHANGE 96
|
|
#SCROLL 2
|
|
2000000000000000000000000000000000000000
|
|
#BPMCHANGE 93
|
|
#SCROLL 2.06452
|
|
000
|
|
#BPMCHANGE 88
|
|
#SCROLL 2.18182
|
|
00
|
|
#BPMCHANGE 97
|
|
#SCROLL 1.97938
|
|
000,
|
|
#BPMCHANGE 96
|
|
#SCROLL 2
|
|
1000001000
|
|
#BPMCHANGE 112
|
|
#SCROLL 1.71429
|
|
0
|
|
#BPMCHANGE 116
|
|
#SCROLL 1.65517
|
|
0,
|
|
#BPMCHANGE 96
|
|
#SCROLL 2
|
|
10000
|
|
#BPMCHANGE 106
|
|
#SCROLL 1.81132
|
|
0,
|
|
#BPMCHANGE 96
|
|
#SCROLL 2
|
|
20020
|
|
#BPMCHANGE 109
|
|
#SCROLL 1.76147
|
|
0,
|
|
#BPMCHANGE 96
|
|
#SCROLL 2
|
|
20000
|
|
#BPMCHANGE 100
|
|
#SCROLL 1.92
|
|
0,
|
|
#BPMCHANGE 96
|
|
#SCROLL 2
|
|
10010
|
|
#BPMCHANGE 103
|
|
#SCROLL 1.86408
|
|
1,
|
|
#BPMCHANGE 96
|
|
#SCROLL 2
|
|
1001
|
|
#BPMCHANGE 102
|
|
#SCROLL 1.88235
|
|
00,
|
|
#BPMCHANGE 96
|
|
#SCROLL 2
|
|
10000
|
|
#BPMCHANGE 106
|
|
#SCROLL 1.81132
|
|
0,
|
|
#BPMCHANGE 96
|
|
#SCROLL 2
|
|
000,
|
|
20020
|
|
#BPMCHANGE 110
|
|
#SCROLL 1.74545
|
|
2,
|
|
#BPMCHANGE 96
|
|
#SCROLL 2
|
|
20020
|
|
#BPMCHANGE 109
|
|
#SCROLL 1.76147
|
|
0,
|
|
#BPMCHANGE 96
|
|
#SCROLL 2
|
|
20000
|
|
#BPMCHANGE 109
|
|
#SCROLL 1.76147
|
|
0,
|
|
#BPMCHANGE 96
|
|
#SCROLL 2
|
|
30030
|
|
#BPMCHANGE 100
|
|
#SCROLL 1.92
|
|
0,
|
|
#GOGOSTART
|
|
#BPMCHANGE 96
|
|
#SCROLL 2
|
|
06000
|
|
#BPMCHANGE 105
|
|
#SCROLL 1.82857
|
|
0,
|
|
#BPMCHANGE 96
|
|
#SCROLL 2
|
|
00000
|
|
#BPMCHANGE 106
|
|
#SCROLL 1.81132
|
|
0,
|
|
#BPMCHANGE 96
|
|
#SCROLL 2
|
|
00080
|
|
#BPMCHANGE 109
|
|
#SCROLL 1.76147
|
|
0,
|
|
#BPMCHANGE 96
|
|
#SCROLL 2
|
|
30030
|
|
#GOGOEND
|
|
#BPMCHANGE 103
|
|
#SCROLL 1.86408
|
|
0,
|
|
#GOGOSTART
|
|
#BPMCHANGE 96
|
|
#SCROLL 2
|
|
0600
|
|
#BPMCHANGE 102
|
|
#SCROLL 1.88235
|
|
0
|
|
#BPMCHANGE 96
|
|
#SCROLL 2
|
|
0,
|
|
#BPMCHANGE 96
|
|
#SCROLL 2
|
|
00
|
|
#BPMCHANGE 100
|
|
#SCROLL 1.92
|
|
0,
|
|
#BPMCHANGE 96
|
|
#SCROLL 2
|
|
00080
|
|
#BPMCHANGE 111
|
|
#SCROLL 1.72973
|
|
0,
|
|
#BPMCHANGE 96
|
|
#SCROLL 2
|
|
30030
|
|
#GOGOEND
|
|
#BPMCHANGE 104
|
|
#SCROLL 1.84615
|
|
0,
|
|
#GOGOSTART
|
|
#BPMCHANGE 96
|
|
#SCROLL 2
|
|
06000
|
|
#BPMCHANGE 112
|
|
#SCROLL 1.71429
|
|
0,
|
|
#BPMCHANGE 96
|
|
#SCROLL 2
|
|
000,
|
|
00080
|
|
#BPMCHANGE 107
|
|
#SCROLL 1.79439
|
|
0,
|
|
#BPMCHANGE 96
|
|
#SCROLL 2
|
|
100000
|
|
#BPMCHANGE 103
|
|
#SCROLL 1.86408
|
|
00000
|
|
#GOGOEND
|
|
#BPMCHANGE 82
|
|
#SCROLL 2.34146
|
|
0,
|
|
#GOGOSTART
|
|
#BPMCHANGE 96
|
|
#SCROLL 2
|
|
1001
|
|
#BPMCHANGE 98
|
|
#SCROLL 1.95918
|
|
00,
|
|
#BPMCHANGE 96
|
|
#SCROLL 2
|
|
10000
|
|
#BPMCHANGE 109
|
|
#SCROLL 1.76147
|
|
0,
|
|
#BPMCHANGE 96
|
|
#SCROLL 2
|
|
20020
|
|
#BPMCHANGE 114
|
|
#SCROLL 1.68421
|
|
0,
|
|
#BPMCHANGE 96
|
|
#SCROLL 2
|
|
200,
|
|
#MEASURE 3/8
|
|
#GOGOEND
|
|
#BPMCHANGE 97
|
|
#SCROLL 1.97938
|
|
000,
|
|
#MEASURE 6/8
|
|
100,
|
|
10000
|
|
#BPMCHANGE 102
|
|
#SCROLL 1.88235
|
|
0,
|
|
#BPMCHANGE 96
|
|
#SCROLL 2
|
|
10
|
|
#BPMCHANGE 104
|
|
#SCROLL 1.84615
|
|
0,
|
|
#MEASURE 3/8
|
|
#BPMCHANGE 96
|
|
#SCROLL 2
|
|
100,
|
|
#END
|
|
|
|
COURSE:Normal
|
|
LEVEL:2
|
|
SCOREINIT:
|
|
SCOREDIFF:
|
|
NOTESDESIGNER1:Colin
|
|
|
|
#START
|
|
#MEASURE 3/4
|
|
#SCROLL 2
|
|
000,
|
|
#MEASURE 5/4
|
|
#BPMCHANGE 86
|
|
#SCROLL 2.23256
|
|
200000000000000000000000
|
|
#BPMCHANGE 79
|
|
#SCROLL 2.43038
|
|
00000000000000
|
|
#BPMCHANGE 49
|
|
#SCROLL 3.91837
|
|
0
|
|
#BPMCHANGE 66
|
|
#SCROLL 2.90909
|
|
0,
|
|
#MEASURE 3/4
|
|
#BPMCHANGE 32
|
|
#SCROLL 6
|
|
2000
|
|
#BPMCHANGE 36
|
|
#SCROLL 5.33333
|
|
000
|
|
#BPMCHANGE 22.5
|
|
#SCROLL 8.53333
|
|
0
|
|
#BPMCHANGE 31.5
|
|
#SCROLL 6.09524
|
|
2000
|
|
#BPMCHANGE 48
|
|
#SCROLL 4
|
|
0000
|
|
#BPMCHANGE 45
|
|
#SCROLL 4.26667
|
|
00500000,
|
|
#MEASURE 9/16
|
|
#BPMCHANGE 48.5
|
|
#SCROLL 3.95876
|
|
000000
|
|
#BPMCHANGE 45.5
|
|
#SCROLL 4.21978
|
|
80
|
|
#BPMCHANGE 46.5
|
|
#SCROLL 4.12903
|
|
0,
|
|
#MEASURE 6/8
|
|
#BPMCHANGE 96
|
|
#SCROLL 2
|
|
10000010000
|
|
#BPMCHANGE 76
|
|
#SCROLL 2.52632
|
|
0,
|
|
#BPMCHANGE 96
|
|
#SCROLL 2
|
|
100000
|
|
#BPMCHANGE 108
|
|
#SCROLL 1.77778
|
|
0000
|
|
#BPMCHANGE 112
|
|
#SCROLL 1.71429
|
|
0
|
|
#BPMCHANGE 47
|
|
#SCROLL 4.08511
|
|
0,
|
|
#BPMCHANGE 96
|
|
#SCROLL 2
|
|
100001,
|
|
10000000000
|
|
#BPMCHANGE 70
|
|
#SCROLL 2.74286
|
|
0,
|
|
#BPMCHANGE 96
|
|
#SCROLL 2
|
|
10000000000010
|
|
#BPMCHANGE 69
|
|
#SCROLL 2.78261
|
|
00
|
|
#BPMCHANGE 101
|
|
#SCROLL 1.90099
|
|
000
|
|
#BPMCHANGE 117
|
|
#SCROLL 1.64103
|
|
000
|
|
#BPMCHANGE 70
|
|
#SCROLL 2.74286
|
|
00,
|
|
#BPMCHANGE 96
|
|
#SCROLL 2
|
|
10000000
|
|
#BPMCHANGE 125
|
|
#SCROLL 1.536
|
|
00
|
|
#BPMCHANGE 93
|
|
#SCROLL 2.06452
|
|
0
|
|
#BPMCHANGE 51
|
|
#SCROLL 3.76471
|
|
0,
|
|
#BPMCHANGE 96
|
|
#SCROLL 2
|
|
10000
|
|
#BPMCHANGE 100
|
|
#SCROLL 1.92
|
|
1,
|
|
#BPMCHANGE 96
|
|
#SCROLL 2
|
|
1000000000
|
|
#BPMCHANGE 76
|
|
#SCROLL 2.52632
|
|
0
|
|
#BPMCHANGE 89
|
|
#SCROLL 2.1573
|
|
0,
|
|
#BPMCHANGE 96
|
|
#SCROLL 2
|
|
20020
|
|
#BPMCHANGE 87
|
|
#SCROLL 2.2069
|
|
0,
|
|
#BPMCHANGE 96
|
|
#SCROLL 2
|
|
20000000
|
|
#BPMCHANGE 115
|
|
#SCROLL 1.66957
|
|
00
|
|
#BPMCHANGE 104
|
|
#SCROLL 1.84615
|
|
0
|
|
#BPMCHANGE 50
|
|
#SCROLL 3.84
|
|
0,
|
|
#BPMCHANGE 96
|
|
#SCROLL 2
|
|
20000
|
|
#BPMCHANGE 108
|
|
#SCROLL 1.77778
|
|
0,
|
|
#BPMCHANGE 96
|
|
#SCROLL 2
|
|
20000
|
|
#BPMCHANGE 76
|
|
#SCROLL 2.52632
|
|
2,
|
|
#BPMCHANGE 96
|
|
#SCROLL 2
|
|
2000
|
|
#BPMCHANGE 97
|
|
#SCROLL 1.97938
|
|
0
|
|
#BPMCHANGE 99
|
|
#SCROLL 1.93939
|
|
0,
|
|
#MEASURE 11/16
|
|
#BPMCHANGE 96
|
|
#SCROLL 2
|
|
20000000
|
|
#BPMCHANGE 79
|
|
#SCROLL 2.43038
|
|
0000
|
|
#BPMCHANGE 82
|
|
#SCROLL 2.34146
|
|
00000
|
|
#BPMCHANGE 72
|
|
#SCROLL 2.66667
|
|
0
|
|
#BPMCHANGE 81
|
|
#SCROLL 2.37037
|
|
00
|
|
#BPMCHANGE 72
|
|
#SCROLL 2.66667
|
|
0
|
|
#BPMCHANGE 80
|
|
#SCROLL 2.4
|
|
0,
|
|
#MEASURE 6/8
|
|
#BPMCHANGE 96
|
|
#SCROLL 2
|
|
30030
|
|
#BPMCHANGE 109
|
|
#SCROLL 1.76147
|
|
0,
|
|
#BPMCHANGE 96
|
|
#SCROLL 2
|
|
300,
|
|
#GOGOSTART
|
|
10010
|
|
#BPMCHANGE 107
|
|
#SCROLL 1.79439
|
|
1,
|
|
#BPMCHANGE 96
|
|
#SCROLL 2
|
|
10000
|
|
#BPMCHANGE 104
|
|
#SCROLL 1.84615
|
|
0,
|
|
#BPMCHANGE 96
|
|
#SCROLL 2
|
|
10110
|
|
#BPMCHANGE 111
|
|
#SCROLL 1.72973
|
|
1,
|
|
#BPMCHANGE 96
|
|
#SCROLL 2
|
|
10000
|
|
#BPMCHANGE 101
|
|
#SCROLL 1.90099
|
|
0,
|
|
#BPMCHANGE 96
|
|
#SCROLL 2
|
|
20220
|
|
#BPMCHANGE 108
|
|
#SCROLL 1.77778
|
|
2,
|
|
#BPMCHANGE 96
|
|
#SCROLL 2
|
|
200,
|
|
20020
|
|
#BPMCHANGE 117
|
|
#SCROLL 1.64103
|
|
2,
|
|
#BPMCHANGE 96
|
|
#SCROLL 2
|
|
20000
|
|
#BPMCHANGE 100
|
|
#SCROLL 1.92
|
|
0,
|
|
#GOGOEND
|
|
#BPMCHANGE 96
|
|
#SCROLL 2
|
|
200,
|
|
200,
|
|
20000
|
|
#BPMCHANGE 129
|
|
#SCROLL 1.48837
|
|
0,
|
|
#BPMCHANGE 97
|
|
#SCROLL 1.97938
|
|
200,
|
|
#BPMCHANGE 28
|
|
#SCROLL 6.85714
|
|
00000
|
|
#BPMCHANGE 26.5
|
|
#SCROLL 7.24528
|
|
0,
|
|
#MEASURE 3/8
|
|
#BPMCHANGE 105
|
|
#SCROLL 1.82857
|
|
00
|
|
#BPMCHANGE 106
|
|
#SCROLL 1.81132
|
|
0
|
|
#BPMCHANGE 95
|
|
#SCROLL 2.02105
|
|
0
|
|
#BPMCHANGE 99
|
|
#SCROLL 1.93939
|
|
00,
|
|
#MEASURE 6/8
|
|
#BPMCHANGE 96
|
|
#SCROLL 2
|
|
30000000100010000000100
|
|
#BPMCHANGE 155
|
|
#SCROLL 1.23871
|
|
0,
|
|
#BPMCHANGE 96
|
|
#SCROLL 2
|
|
10010
|
|
#BPMCHANGE 104
|
|
#SCROLL 1.84615
|
|
0,
|
|
#BPMCHANGE 96
|
|
#SCROLL 2
|
|
20220
|
|
#BPMCHANGE 111
|
|
#SCROLL 1.72973
|
|
2,
|
|
#BPMCHANGE 96
|
|
#SCROLL 2
|
|
2000000000000000000000002000000000000000
|
|
#BPMCHANGE 93
|
|
#SCROLL 2.06452
|
|
000
|
|
#BPMCHANGE 88
|
|
#SCROLL 2.18182
|
|
00
|
|
#BPMCHANGE 97
|
|
#SCROLL 1.97938
|
|
000,
|
|
#BPMCHANGE 96
|
|
#SCROLL 2
|
|
1000001000
|
|
#BPMCHANGE 112
|
|
#SCROLL 1.71429
|
|
1
|
|
#BPMCHANGE 116
|
|
#SCROLL 1.65517
|
|
0,
|
|
#BPMCHANGE 96
|
|
#SCROLL 2
|
|
10000
|
|
#BPMCHANGE 106
|
|
#SCROLL 1.81132
|
|
0,
|
|
#BPMCHANGE 96
|
|
#SCROLL 2
|
|
20020
|
|
#BPMCHANGE 109
|
|
#SCROLL 1.76147
|
|
2,
|
|
#BPMCHANGE 96
|
|
#SCROLL 2
|
|
20000
|
|
#BPMCHANGE 100
|
|
#SCROLL 1.92
|
|
0,
|
|
#BPMCHANGE 96
|
|
#SCROLL 2
|
|
10010
|
|
#BPMCHANGE 103
|
|
#SCROLL 1.86408
|
|
1,
|
|
#BPMCHANGE 96
|
|
#SCROLL 2
|
|
1011
|
|
#BPMCHANGE 102
|
|
#SCROLL 1.88235
|
|
00,
|
|
#BPMCHANGE 96
|
|
#SCROLL 2
|
|
10000
|
|
#BPMCHANGE 106
|
|
#SCROLL 1.81132
|
|
0,
|
|
#BPMCHANGE 96
|
|
#SCROLL 2
|
|
000,
|
|
20220
|
|
#BPMCHANGE 110
|
|
#SCROLL 1.74545
|
|
2,
|
|
#BPMCHANGE 96
|
|
#SCROLL 2
|
|
20220
|
|
#BPMCHANGE 109
|
|
#SCROLL 1.76147
|
|
0,
|
|
#BPMCHANGE 96
|
|
#SCROLL 2
|
|
20000
|
|
#BPMCHANGE 109
|
|
#SCROLL 1.76147
|
|
0,
|
|
#BPMCHANGE 96
|
|
#SCROLL 2
|
|
30030
|
|
#BPMCHANGE 100
|
|
#SCROLL 1.92
|
|
0,
|
|
#GOGOSTART
|
|
#BPMCHANGE 96
|
|
#SCROLL 2
|
|
06000
|
|
#BPMCHANGE 105
|
|
#SCROLL 1.82857
|
|
0,
|
|
#BPMCHANGE 96
|
|
#SCROLL 2
|
|
00000
|
|
#BPMCHANGE 106
|
|
#SCROLL 1.81132
|
|
0,
|
|
#BPMCHANGE 96
|
|
#SCROLL 2
|
|
00080
|
|
#BPMCHANGE 109
|
|
#SCROLL 1.76147
|
|
0,
|
|
#BPMCHANGE 96
|
|
#SCROLL 2
|
|
30030
|
|
#GOGOEND
|
|
#BPMCHANGE 103
|
|
#SCROLL 1.86408
|
|
0,
|
|
#GOGOSTART
|
|
#BPMCHANGE 96
|
|
#SCROLL 2
|
|
0600
|
|
#BPMCHANGE 102
|
|
#SCROLL 1.88235
|
|
0
|
|
#BPMCHANGE 96
|
|
#SCROLL 2
|
|
0,
|
|
#BPMCHANGE 96
|
|
#SCROLL 2
|
|
00
|
|
#BPMCHANGE 100
|
|
#SCROLL 1.92
|
|
0,
|
|
#BPMCHANGE 96
|
|
#SCROLL 2
|
|
00080
|
|
#BPMCHANGE 111
|
|
#SCROLL 1.72973
|
|
0,
|
|
#BPMCHANGE 96
|
|
#SCROLL 2
|
|
30030
|
|
#GOGOEND
|
|
#BPMCHANGE 104
|
|
#SCROLL 1.84615
|
|
0,
|
|
#GOGOSTART
|
|
#BPMCHANGE 96
|
|
#SCROLL 2
|
|
06000
|
|
#BPMCHANGE 112
|
|
#SCROLL 1.71429
|
|
0,
|
|
#BPMCHANGE 96
|
|
#SCROLL 2
|
|
000,
|
|
00080
|
|
#BPMCHANGE 107
|
|
#SCROLL 1.79439
|
|
0,
|
|
#BPMCHANGE 96
|
|
#SCROLL 2
|
|
100000
|
|
#BPMCHANGE 103
|
|
#SCROLL 1.86408
|
|
00000
|
|
#GOGOEND
|
|
#BPMCHANGE 82
|
|
#SCROLL 2.34146
|
|
0,
|
|
#GOGOSTART
|
|
#BPMCHANGE 96
|
|
#SCROLL 2
|
|
1011
|
|
#BPMCHANGE 98
|
|
#SCROLL 1.95918
|
|
00,
|
|
#BPMCHANGE 96
|
|
#SCROLL 2
|
|
10010
|
|
#BPMCHANGE 109
|
|
#SCROLL 1.76147
|
|
0,
|
|
#BPMCHANGE 96
|
|
#SCROLL 2
|
|
20020
|
|
#BPMCHANGE 114
|
|
#SCROLL 1.68421
|
|
0,
|
|
#BPMCHANGE 96
|
|
#SCROLL 2
|
|
200,
|
|
#MEASURE 3/8
|
|
#GOGOEND
|
|
#BPMCHANGE 97
|
|
#SCROLL 1.97938
|
|
000,
|
|
#MEASURE 6/8
|
|
100,
|
|
10000
|
|
#BPMCHANGE 102
|
|
#SCROLL 1.88235
|
|
0,
|
|
#BPMCHANGE 96
|
|
#SCROLL 2
|
|
10
|
|
#BPMCHANGE 104
|
|
#SCROLL 1.84615
|
|
0,
|
|
#MEASURE 3/8
|
|
#BPMCHANGE 96
|
|
#SCROLL 2
|
|
100,
|
|
#END
|
|
|
|
COURSE:Hard
|
|
LEVEL:2
|
|
SCOREINIT:
|
|
SCOREDIFF:
|
|
NOTESDESIGNER2:Colin
|
|
|
|
#START
|
|
#MEASURE 3/4
|
|
#SCROLL 2
|
|
000,
|
|
#MEASURE 5/4
|
|
#BPMCHANGE 86
|
|
#SCROLL 2.23256
|
|
200000000000000000000000
|
|
#BPMCHANGE 79
|
|
#SCROLL 2.43038
|
|
00000000000020
|
|
#BPMCHANGE 49
|
|
#SCROLL 3.91837
|
|
0
|
|
#BPMCHANGE 66
|
|
#SCROLL 2.90909
|
|
0,
|
|
#MEASURE 3/4
|
|
#BPMCHANGE 32
|
|
#SCROLL 6
|
|
2000
|
|
#BPMCHANGE 36
|
|
#SCROLL 5.33333
|
|
000
|
|
#BPMCHANGE 22.5
|
|
#SCROLL 8.53333
|
|
2
|
|
#BPMCHANGE 31.5
|
|
#SCROLL 6.09524
|
|
2000
|
|
#BPMCHANGE 48
|
|
#SCROLL 4
|
|
0000
|
|
#BPMCHANGE 45
|
|
#SCROLL 4.26667
|
|
20200000,
|
|
#MEASURE 9/16
|
|
#BPMCHANGE 48.5
|
|
#SCROLL 3.95876
|
|
200200
|
|
#BPMCHANGE 45.5
|
|
#SCROLL 4.21978
|
|
00
|
|
#BPMCHANGE 46.5
|
|
#SCROLL 4.12903
|
|
0,
|
|
#MEASURE 6/8
|
|
#BPMCHANGE 96
|
|
#SCROLL 2
|
|
10000010001
|
|
#BPMCHANGE 76
|
|
#SCROLL 2.52632
|
|
0,
|
|
#BPMCHANGE 96
|
|
#SCROLL 2
|
|
100000
|
|
#BPMCHANGE 108
|
|
#SCROLL 1.77778
|
|
0000
|
|
#BPMCHANGE 112
|
|
#SCROLL 1.71429
|
|
2
|
|
#BPMCHANGE 47
|
|
#SCROLL 4.08511
|
|
2,
|
|
#BPMCHANGE 96
|
|
#SCROLL 2
|
|
200,
|
|
10000000000
|
|
#BPMCHANGE 70
|
|
#SCROLL 2.74286
|
|
0,
|
|
#BPMCHANGE 96
|
|
#SCROLL 2
|
|
20002000200020
|
|
#BPMCHANGE 69
|
|
#SCROLL 2.78261
|
|
00
|
|
#BPMCHANGE 101
|
|
#SCROLL 1.90099
|
|
000
|
|
#BPMCHANGE 117
|
|
#SCROLL 1.64103
|
|
000
|
|
#BPMCHANGE 70
|
|
#SCROLL 2.74286
|
|
00,
|
|
#BPMCHANGE 96
|
|
#SCROLL 2
|
|
20000000
|
|
#BPMCHANGE 125
|
|
#SCROLL 1.536
|
|
00
|
|
#BPMCHANGE 93
|
|
#SCROLL 2.06452
|
|
1
|
|
#BPMCHANGE 51
|
|
#SCROLL 3.76471
|
|
1,
|
|
#BPMCHANGE 96
|
|
#SCROLL 2
|
|
10010
|
|
#BPMCHANGE 100
|
|
#SCROLL 1.92
|
|
0,
|
|
#BPMCHANGE 96
|
|
#SCROLL 2
|
|
1000001000
|
|
#BPMCHANGE 76
|
|
#SCROLL 2.52632
|
|
0
|
|
#BPMCHANGE 89
|
|
#SCROLL 2.1573
|
|
0,
|
|
#BPMCHANGE 96
|
|
#SCROLL 2
|
|
2000202002
|
|
#BPMCHANGE 87
|
|
#SCROLL 2.2069
|
|
20,
|
|
#BPMCHANGE 96
|
|
#SCROLL 2
|
|
20000000
|
|
#BPMCHANGE 115
|
|
#SCROLL 1.66957
|
|
00
|
|
#BPMCHANGE 104
|
|
#SCROLL 1.84615
|
|
0
|
|
#BPMCHANGE 50
|
|
#SCROLL 3.84
|
|
0,
|
|
#BPMCHANGE 96
|
|
#SCROLL 2
|
|
10000
|
|
#BPMCHANGE 108
|
|
#SCROLL 1.77778
|
|
1,
|
|
#BPMCHANGE 96
|
|
#SCROLL 2
|
|
10000
|
|
#BPMCHANGE 76
|
|
#SCROLL 2.52632
|
|
1,
|
|
#BPMCHANGE 96
|
|
#SCROLL 2
|
|
1000
|
|
#BPMCHANGE 97
|
|
#SCROLL 1.97938
|
|
0
|
|
#BPMCHANGE 99
|
|
#SCROLL 1.93939
|
|
1,
|
|
#MEASURE 11/16
|
|
#BPMCHANGE 96
|
|
#SCROLL 2
|
|
10000000
|
|
#BPMCHANGE 79
|
|
#SCROLL 2.43038
|
|
0000
|
|
#BPMCHANGE 82
|
|
#SCROLL 2.34146
|
|
00000
|
|
#BPMCHANGE 72
|
|
#SCROLL 2.66667
|
|
0
|
|
#BPMCHANGE 81
|
|
#SCROLL 2.37037
|
|
00
|
|
#BPMCHANGE 72
|
|
#SCROLL 2.66667
|
|
0
|
|
#BPMCHANGE 80
|
|
#SCROLL 2.4
|
|
0,
|
|
#MEASURE 6/8
|
|
#BPMCHANGE 96
|
|
#SCROLL 2
|
|
33333
|
|
#BPMCHANGE 109
|
|
#SCROLL 1.76147
|
|
3,
|
|
#BPMCHANGE 96
|
|
#SCROLL 2
|
|
333333,
|
|
#GOGOSTART
|
|
30120
|
|
#BPMCHANGE 107
|
|
#SCROLL 1.79439
|
|
0,
|
|
#BPMCHANGE 96
|
|
#SCROLL 2
|
|
10220
|
|
#BPMCHANGE 104
|
|
#SCROLL 1.84615
|
|
2,
|
|
#BPMCHANGE 96
|
|
#SCROLL 2
|
|
10120
|
|
#BPMCHANGE 111
|
|
#SCROLL 1.72973
|
|
0,
|
|
#BPMCHANGE 96
|
|
#SCROLL 2
|
|
10220
|
|
#BPMCHANGE 101
|
|
#SCROLL 1.90099
|
|
2,
|
|
#BPMCHANGE 96
|
|
#SCROLL 2
|
|
10120
|
|
#BPMCHANGE 108
|
|
#SCROLL 1.77778
|
|
1,
|
|
#BPMCHANGE 96
|
|
#SCROLL 2
|
|
101201,
|
|
1000002000
|
|
#BPMCHANGE 117
|
|
#SCROLL 1.64103
|
|
22,
|
|
#BPMCHANGE 96
|
|
#SCROLL 2
|
|
20110
|
|
#BPMCHANGE 100
|
|
#SCROLL 1.92
|
|
1,
|
|
#GOGOEND
|
|
#BPMCHANGE 96
|
|
#SCROLL 2
|
|
000,
|
|
200,
|
|
20000
|
|
#BPMCHANGE 129
|
|
#SCROLL 1.48837
|
|
0,
|
|
#BPMCHANGE 97
|
|
#SCROLL 1.97938
|
|
000,
|
|
#BPMCHANGE 28
|
|
#SCROLL 6.85714
|
|
00000
|
|
#BPMCHANGE 26.5
|
|
#SCROLL 7.24528
|
|
0,
|
|
#MEASURE 3/8
|
|
#BPMCHANGE 105
|
|
#SCROLL 1.82857
|
|
00
|
|
#BPMCHANGE 106
|
|
#SCROLL 1.81132
|
|
0
|
|
#BPMCHANGE 95
|
|
#SCROLL 2.02105
|
|
0
|
|
#BPMCHANGE 99
|
|
#SCROLL 1.93939
|
|
00,
|
|
#MEASURE 6/8
|
|
#BPMCHANGE 96
|
|
#SCROLL 2
|
|
30000010100020000000100
|
|
#BPMCHANGE 155
|
|
#SCROLL 1.23871
|
|
0,
|
|
#BPMCHANGE 96
|
|
#SCROLL 2
|
|
10120
|
|
#BPMCHANGE 104
|
|
#SCROLL 1.84615
|
|
2,
|
|
#BPMCHANGE 96
|
|
#SCROLL 2
|
|
10120
|
|
#BPMCHANGE 111
|
|
#SCROLL 1.72973
|
|
2,
|
|
#BPMCHANGE 96
|
|
#SCROLL 2
|
|
2000000000000000000000001000000020000000
|
|
#BPMCHANGE 93
|
|
#SCROLL 2.06452
|
|
200
|
|
#BPMCHANGE 88
|
|
#SCROLL 2.18182
|
|
00
|
|
#BPMCHANGE 97
|
|
#SCROLL 1.97938
|
|
000,
|
|
#BPMCHANGE 96
|
|
#SCROLL 2
|
|
1000102000
|
|
#BPMCHANGE 112
|
|
#SCROLL 1.71429
|
|
1
|
|
#BPMCHANGE 116
|
|
#SCROLL 1.65517
|
|
0,
|
|
#BPMCHANGE 96
|
|
#SCROLL 2
|
|
10120
|
|
#BPMCHANGE 106
|
|
#SCROLL 1.81132
|
|
1,
|
|
#BPMCHANGE 96
|
|
#SCROLL 2
|
|
10120
|
|
#BPMCHANGE 109
|
|
#SCROLL 1.76147
|
|
2,
|
|
#BPMCHANGE 96
|
|
#SCROLL 2
|
|
10020
|
|
#BPMCHANGE 100
|
|
#SCROLL 1.92
|
|
0,
|
|
#BPMCHANGE 96
|
|
#SCROLL 2
|
|
10220
|
|
#BPMCHANGE 103
|
|
#SCROLL 1.86408
|
|
0,
|
|
#BPMCHANGE 96
|
|
#SCROLL 2
|
|
1022
|
|
#BPMCHANGE 102
|
|
#SCROLL 1.88235
|
|
00,
|
|
#BPMCHANGE 96
|
|
#SCROLL 2
|
|
10220
|
|
#BPMCHANGE 106
|
|
#SCROLL 1.81132
|
|
0,
|
|
#BPMCHANGE 96
|
|
#SCROLL 2
|
|
100202,
|
|
10220
|
|
#BPMCHANGE 110
|
|
#SCROLL 1.74545
|
|
0,
|
|
#BPMCHANGE 96
|
|
#SCROLL 2
|
|
10220
|
|
#BPMCHANGE 109
|
|
#SCROLL 1.76147
|
|
1,
|
|
#BPMCHANGE 96
|
|
#SCROLL 2
|
|
10010
|
|
#BPMCHANGE 109
|
|
#SCROLL 1.76147
|
|
0,
|
|
#BPMCHANGE 96
|
|
#SCROLL 2
|
|
30030
|
|
#BPMCHANGE 100
|
|
#SCROLL 1.92
|
|
0,
|
|
#GOGOSTART
|
|
#BPMCHANGE 96
|
|
#SCROLL 2
|
|
06000
|
|
#BPMCHANGE 105
|
|
#SCROLL 1.82857
|
|
0,
|
|
#BPMCHANGE 96
|
|
#SCROLL 2
|
|
00000
|
|
#BPMCHANGE 106
|
|
#SCROLL 1.81132
|
|
0,
|
|
#BPMCHANGE 96
|
|
#SCROLL 2
|
|
80012
|
|
#BPMCHANGE 109
|
|
#SCROLL 1.76147
|
|
1,
|
|
#BPMCHANGE 96
|
|
#SCROLL 2
|
|
40040
|
|
#GOGOEND
|
|
#BPMCHANGE 103
|
|
#SCROLL 1.86408
|
|
0,
|
|
#GOGOSTART
|
|
#BPMCHANGE 96
|
|
#SCROLL 2
|
|
0600
|
|
#BPMCHANGE 102
|
|
#SCROLL 1.88235
|
|
0
|
|
#BPMCHANGE 96
|
|
#SCROLL 2
|
|
0,
|
|
#BPMCHANGE 96
|
|
#SCROLL 2
|
|
00
|
|
#BPMCHANGE 100
|
|
#SCROLL 1.92
|
|
0,
|
|
#BPMCHANGE 96
|
|
#SCROLL 2
|
|
00080
|
|
#BPMCHANGE 111
|
|
#SCROLL 1.72973
|
|
3,
|
|
#BPMCHANGE 96
|
|
#SCROLL 2
|
|
30030
|
|
#GOGOEND
|
|
#BPMCHANGE 104
|
|
#SCROLL 1.84615
|
|
0,
|
|
#GOGOSTART
|
|
#BPMCHANGE 96
|
|
#SCROLL 2
|
|
06000
|
|
#BPMCHANGE 112
|
|
#SCROLL 1.71429
|
|
0,
|
|
#BPMCHANGE 96
|
|
#SCROLL 2
|
|
000,
|
|
00000
|
|
#BPMCHANGE 107
|
|
#SCROLL 1.79439
|
|
0,
|
|
#BPMCHANGE 96
|
|
#SCROLL 2
|
|
800000
|
|
#BPMCHANGE 103
|
|
#SCROLL 1.86408
|
|
00000
|
|
#GOGOEND
|
|
#BPMCHANGE 82
|
|
#SCROLL 2.34146
|
|
0,
|
|
#GOGOSTART
|
|
#BPMCHANGE 96
|
|
#SCROLL 2
|
|
1221
|
|
#BPMCHANGE 98
|
|
#SCROLL 1.95918
|
|
22,
|
|
#BPMCHANGE 96
|
|
#SCROLL 2
|
|
12212
|
|
#BPMCHANGE 109
|
|
#SCROLL 1.76147
|
|
1,
|
|
#BPMCHANGE 96
|
|
#SCROLL 2
|
|
21221
|
|
#BPMCHANGE 114
|
|
#SCROLL 1.68421
|
|
2,
|
|
#BPMCHANGE 96
|
|
#SCROLL 2
|
|
101010101111,
|
|
#MEASURE 3/8
|
|
#GOGOEND
|
|
#BPMCHANGE 97
|
|
#SCROLL 1.97938
|
|
000,
|
|
#MEASURE 6/8
|
|
100,
|
|
10000
|
|
#BPMCHANGE 102
|
|
#SCROLL 1.88235
|
|
0,
|
|
#BPMCHANGE 96
|
|
#SCROLL 2
|
|
10
|
|
#BPMCHANGE 104
|
|
#SCROLL 1.84615
|
|
0,
|
|
#MEASURE 3/8
|
|
#BPMCHANGE 96
|
|
#SCROLL 2
|
|
100,
|
|
#END
|
|
|
|
COURSE:Oni
|
|
LEVEL:6
|
|
SCOREINIT:
|
|
SCOREDIFF:
|
|
NOTESDESIGNER3:Colin
|
|
|
|
#START
|
|
#MEASURE 3/4
|
|
#SCROLL 2
|
|
000,
|
|
#MEASURE 5/4
|
|
#BPMCHANGE 86
|
|
#SCROLL 2.23256
|
|
100000000000100000000000
|
|
#BPMCHANGE 79
|
|
#SCROLL 2.43038
|
|
00000000000020
|
|
#BPMCHANGE 49
|
|
#SCROLL 3.91837
|
|
0
|
|
#BPMCHANGE 66
|
|
#SCROLL 2.90909
|
|
0,
|
|
#MEASURE 3/4
|
|
#BPMCHANGE 32
|
|
#SCROLL 6
|
|
1000
|
|
#BPMCHANGE 36
|
|
#SCROLL 5.33333
|
|
200
|
|
#BPMCHANGE 22.5
|
|
#SCROLL 8.53333
|
|
2
|
|
#BPMCHANGE 31.5
|
|
#SCROLL 6.09524
|
|
1000
|
|
#BPMCHANGE 48
|
|
#SCROLL 4
|
|
2000
|
|
#BPMCHANGE 45
|
|
#SCROLL 4.26667
|
|
20100000,
|
|
#MEASURE 9/16
|
|
#BPMCHANGE 48.5
|
|
#SCROLL 3.95876
|
|
333333
|
|
#BPMCHANGE 45.5
|
|
#SCROLL 4.21978
|
|
30
|
|
#BPMCHANGE 46.5
|
|
#SCROLL 4.12903
|
|
0,
|
|
#MEASURE 6/8
|
|
#BPMCHANGE 96
|
|
#SCROLL 2
|
|
20202020202
|
|
#BPMCHANGE 76
|
|
#SCROLL 2.52632
|
|
0,
|
|
#BPMCHANGE 96
|
|
#SCROLL 2
|
|
100000
|
|
#BPMCHANGE 108
|
|
#SCROLL 1.77778
|
|
0000
|
|
#BPMCHANGE 112
|
|
#SCROLL 1.71429
|
|
2
|
|
#BPMCHANGE 47
|
|
#SCROLL 4.08511
|
|
1,
|
|
#BPMCHANGE 96
|
|
#SCROLL 2
|
|
100000000012,
|
|
20000000000
|
|
#BPMCHANGE 70
|
|
#SCROLL 2.74286
|
|
0,
|
|
#BPMCHANGE 96
|
|
#SCROLL 2
|
|
20002000200020
|
|
#BPMCHANGE 69
|
|
#SCROLL 2.78261
|
|
00
|
|
#BPMCHANGE 101
|
|
#SCROLL 1.90099
|
|
200
|
|
#BPMCHANGE 117
|
|
#SCROLL 1.64103
|
|
020
|
|
#BPMCHANGE 70
|
|
#SCROLL 2.74286
|
|
00,
|
|
#BPMCHANGE 96
|
|
#SCROLL 2
|
|
10000000
|
|
#BPMCHANGE 125
|
|
#SCROLL 1.536
|
|
00
|
|
#BPMCHANGE 93
|
|
#SCROLL 2.06452
|
|
2
|
|
#BPMCHANGE 51
|
|
#SCROLL 3.76471
|
|
1,
|
|
#BPMCHANGE 96
|
|
#SCROLL 2
|
|
1010102000
|
|
#BPMCHANGE 100
|
|
#SCROLL 1.92
|
|
21,
|
|
#BPMCHANGE 96
|
|
#SCROLL 2
|
|
2000002000
|
|
#BPMCHANGE 76
|
|
#SCROLL 2.52632
|
|
0
|
|
#BPMCHANGE 89
|
|
#SCROLL 2.1573
|
|
0,
|
|
#BPMCHANGE 96
|
|
#SCROLL 2
|
|
2020202002
|
|
#BPMCHANGE 87
|
|
#SCROLL 2.2069
|
|
20,
|
|
#BPMCHANGE 96
|
|
#SCROLL 2
|
|
11012010
|
|
#BPMCHANGE 115
|
|
#SCROLL 1.66957
|
|
00
|
|
#BPMCHANGE 104
|
|
#SCROLL 1.84615
|
|
1
|
|
#BPMCHANGE 50
|
|
#SCROLL 3.84
|
|
2,
|
|
#BPMCHANGE 96
|
|
#SCROLL 2
|
|
10000
|
|
#BPMCHANGE 108
|
|
#SCROLL 1.77778
|
|
2,
|
|
#BPMCHANGE 96
|
|
#SCROLL 2
|
|
10000
|
|
#BPMCHANGE 76
|
|
#SCROLL 2.52632
|
|
2,
|
|
#BPMCHANGE 96
|
|
#SCROLL 2
|
|
1000
|
|
#BPMCHANGE 97
|
|
#SCROLL 1.97938
|
|
0
|
|
#BPMCHANGE 99
|
|
#SCROLL 1.93939
|
|
2,
|
|
#MEASURE 11/16
|
|
#BPMCHANGE 96
|
|
#SCROLL 2
|
|
10000200
|
|
#BPMCHANGE 79
|
|
#SCROLL 2.43038
|
|
0001
|
|
#BPMCHANGE 82
|
|
#SCROLL 2.34146
|
|
20001
|
|
#BPMCHANGE 72
|
|
#SCROLL 2.66667
|
|
1
|
|
#BPMCHANGE 81
|
|
#SCROLL 2.37037
|
|
12
|
|
#BPMCHANGE 72
|
|
#SCROLL 2.66667
|
|
2
|
|
#BPMCHANGE 80
|
|
#SCROLL 2.4
|
|
2,
|
|
#MEASURE 6/8
|
|
#BPMCHANGE 96
|
|
#SCROLL 2
|
|
100102200100102
|
|
#BPMCHANGE 109
|
|
#SCROLL 1.76147
|
|
200,
|
|
#BPMCHANGE 96
|
|
#SCROLL 2
|
|
100102200101211111,
|
|
#GOGOSTART
|
|
100202200200111
|
|
#BPMCHANGE 107
|
|
#SCROLL 1.79439
|
|
100,
|
|
#BPMCHANGE 96
|
|
#SCROLL 2
|
|
100200200200111
|
|
#BPMCHANGE 104
|
|
#SCROLL 1.84615
|
|
100,
|
|
#BPMCHANGE 96
|
|
#SCROLL 2
|
|
100202201200122
|
|
#BPMCHANGE 111
|
|
#SCROLL 1.72973
|
|
102,
|
|
#BPMCHANGE 96
|
|
#SCROLL 2
|
|
100100201200121
|
|
#BPMCHANGE 101
|
|
#SCROLL 1.90099
|
|
122,
|
|
#BPMCHANGE 96
|
|
#SCROLL 2
|
|
100202200200111
|
|
#BPMCHANGE 108
|
|
#SCROLL 1.77778
|
|
100,
|
|
#BPMCHANGE 96
|
|
#SCROLL 2
|
|
100200200200111100,
|
|
100202201200122
|
|
#BPMCHANGE 117
|
|
#SCROLL 1.64103
|
|
100,
|
|
#BPMCHANGE 96
|
|
#SCROLL 2
|
|
100100201200121
|
|
#BPMCHANGE 100
|
|
#SCROLL 1.92
|
|
122,
|
|
#GOGOEND
|
|
#BPMCHANGE 96
|
|
#SCROLL 2
|
|
222222,
|
|
200000200220,
|
|
20000
|
|
#BPMCHANGE 129
|
|
#SCROLL 1.48837
|
|
0,
|
|
#BPMCHANGE 97
|
|
#SCROLL 1.97938
|
|
100,
|
|
#BPMCHANGE 28
|
|
#SCROLL 6.85714
|
|
10000
|
|
#BPMCHANGE 26.5
|
|
#SCROLL 7.24528
|
|
0,
|
|
#MEASURE 3/8
|
|
#BPMCHANGE 105
|
|
#SCROLL 1.82857
|
|
21
|
|
#BPMCHANGE 106
|
|
#SCROLL 1.81132
|
|
2
|
|
#BPMCHANGE 95
|
|
#SCROLL 2.02105
|
|
2
|
|
#BPMCHANGE 99
|
|
#SCROLL 1.93939
|
|
10,
|
|
#MEASURE 6/8
|
|
#BPMCHANGE 96
|
|
#SCROLL 2
|
|
300000000000200000001000200000000000200000000000100000000000200000000
|
|
#BPMCHANGE 155
|
|
#SCROLL 1.23871
|
|
000,
|
|
#BPMCHANGE 96
|
|
#SCROLL 2
|
|
100201200200222
|
|
#BPMCHANGE 104
|
|
#SCROLL 1.84615
|
|
100,
|
|
#BPMCHANGE 96
|
|
#SCROLL 2
|
|
300201200200211
|
|
#BPMCHANGE 111
|
|
#SCROLL 1.72973
|
|
200,
|
|
#BPMCHANGE 96
|
|
#SCROLL 2
|
|
100000000000000000000000100000000000000010000000200000000000000000000000200000000000000000000000100000001000000010000000
|
|
#BPMCHANGE 93
|
|
#SCROLL 2.06452
|
|
200000002
|
|
#BPMCHANGE 88
|
|
#SCROLL 2.18182
|
|
000000
|
|
#BPMCHANGE 97
|
|
#SCROLL 1.97938
|
|
020000000,
|
|
#BPMCHANGE 96
|
|
#SCROLL 2
|
|
100000200010200000200000101010
|
|
#BPMCHANGE 112
|
|
#SCROLL 1.71429
|
|
200
|
|
#BPMCHANGE 116
|
|
#SCROLL 1.65517
|
|
000,
|
|
#BPMCHANGE 96
|
|
#SCROLL 2
|
|
100202201200222
|
|
#BPMCHANGE 106
|
|
#SCROLL 1.81132
|
|
100,
|
|
#BPMCHANGE 96
|
|
#SCROLL 2
|
|
100201200200111
|
|
#BPMCHANGE 109
|
|
#SCROLL 1.76147
|
|
202,
|
|
#BPMCHANGE 96
|
|
#SCROLL 2
|
|
100000100010200000200010200000
|
|
#BPMCHANGE 100
|
|
#SCROLL 1.92
|
|
100100,
|
|
#BPMCHANGE 96
|
|
#SCROLL 2
|
|
300201200200100
|
|
#BPMCHANGE 103
|
|
#SCROLL 1.86408
|
|
200,
|
|
#BPMCHANGE 96
|
|
#SCROLL 2
|
|
100201200200
|
|
#BPMCHANGE 102
|
|
#SCROLL 1.88235
|
|
222100,
|
|
#BPMCHANGE 96
|
|
#SCROLL 2
|
|
300201200200211
|
|
#BPMCHANGE 106
|
|
#SCROLL 1.81132
|
|
200,
|
|
#BPMCHANGE 96
|
|
#SCROLL 2
|
|
100101200200111222,
|
|
100201200200111
|
|
#BPMCHANGE 110
|
|
#SCROLL 1.74545
|
|
200,
|
|
#BPMCHANGE 96
|
|
#SCROLL 2
|
|
100202201200222
|
|
#BPMCHANGE 109
|
|
#SCROLL 1.76147
|
|
100,
|
|
#BPMCHANGE 96
|
|
#SCROLL 2
|
|
100201200200111
|
|
#BPMCHANGE 109
|
|
#SCROLL 1.76147
|
|
200,
|
|
#BPMCHANGE 96
|
|
#SCROLL 2
|
|
300202200300222
|
|
#BPMCHANGE 100
|
|
#SCROLL 1.92
|
|
111,
|
|
#GOGOSTART
|
|
#BPMCHANGE 96
|
|
#SCROLL 2
|
|
100202201201101
|
|
#BPMCHANGE 105
|
|
#SCROLL 1.82857
|
|
102,
|
|
#BPMCHANGE 96
|
|
#SCROLL 2
|
|
100202201201211
|
|
#BPMCHANGE 106
|
|
#SCROLL 1.81132
|
|
122,
|
|
#BPMCHANGE 96
|
|
#SCROLL 2
|
|
100202201200222
|
|
#BPMCHANGE 109
|
|
#SCROLL 1.76147
|
|
111,
|
|
#BPMCHANGE 96
|
|
#SCROLL 2
|
|
100201200200222
|
|
#GOGOEND
|
|
#BPMCHANGE 103
|
|
#SCROLL 1.86408
|
|
111,
|
|
#GOGOSTART
|
|
#BPMCHANGE 96
|
|
#SCROLL 2
|
|
100201200200
|
|
#BPMCHANGE 102
|
|
#SCROLL 1.88235
|
|
222
|
|
#BPMCHANGE 96
|
|
#SCROLL 2
|
|
102,
|
|
#BPMCHANGE 96
|
|
#SCROLL 2
|
|
100201200200
|
|
#BPMCHANGE 100
|
|
#SCROLL 1.92
|
|
222111,
|
|
#BPMCHANGE 96
|
|
#SCROLL 2
|
|
100201200200211
|
|
#BPMCHANGE 111
|
|
#SCROLL 1.72973
|
|
200,
|
|
#BPMCHANGE 96
|
|
#SCROLL 2
|
|
100202200200222
|
|
#GOGOEND
|
|
#BPMCHANGE 104
|
|
#SCROLL 1.84615
|
|
111,
|
|
#GOGOSTART
|
|
#BPMCHANGE 96
|
|
#SCROLL 2
|
|
100102200200211
|
|
#BPMCHANGE 112
|
|
#SCROLL 1.71429
|
|
100,
|
|
#BPMCHANGE 96
|
|
#SCROLL 2
|
|
300000200020200000200000101010100100,
|
|
300000200020200010200000101010
|
|
#BPMCHANGE 107
|
|
#SCROLL 1.79439
|
|
100100,
|
|
#BPMCHANGE 96
|
|
#SCROLL 2
|
|
300000200010200000
|
|
#BPMCHANGE 103
|
|
#SCROLL 1.86408
|
|
200000202020100
|
|
#GOGOEND
|
|
#BPMCHANGE 82
|
|
#SCROLL 2.34146
|
|
100,
|
|
#GOGOSTART
|
|
#BPMCHANGE 96
|
|
#SCROLL 2
|
|
300102100200
|
|
#BPMCHANGE 98
|
|
#SCROLL 1.95918
|
|
222111,
|
|
#BPMCHANGE 96
|
|
#SCROLL 2
|
|
100202100202211
|
|
#BPMCHANGE 109
|
|
#SCROLL 1.76147
|
|
202,
|
|
#BPMCHANGE 96
|
|
#SCROLL 2
|
|
100000200010200000100100100100
|
|
#BPMCHANGE 114
|
|
#SCROLL 1.68421
|
|
100100,
|
|
#BPMCHANGE 96
|
|
#SCROLL 2
|
|
100020201010100010201010200100200100,
|
|
#MEASURE 3/8
|
|
#GOGOEND
|
|
#BPMCHANGE 97
|
|
#SCROLL 1.97938
|
|
000,
|
|
#MEASURE 6/8
|
|
100,
|
|
10000
|
|
#BPMCHANGE 102
|
|
#SCROLL 1.88235
|
|
0,
|
|
#BPMCHANGE 96
|
|
#SCROLL 2
|
|
10
|
|
#BPMCHANGE 104
|
|
#SCROLL 1.84615
|
|
0,
|
|
#MEASURE 3/8
|
|
#BPMCHANGE 96
|
|
#SCROLL 2
|
|
100,
|
|
#END |