Files
2025-06-11 19:53:16 -04:00

413 lines
3.5 KiB
Plaintext

TITLE:Mascara
SUBTITLE:--Megan Nicole
TITLEJA:Mascara
SUBTITLEJA:Megan Nicole
PREIMAGE:Mascara.jpg
BGMOVIE:Mascara.mp4
WAVE:Mascara.ogg
BPM:139.978
OFFSET:-0.286
DEMOSTART:41.435
MAKER:Colin
COURSE:Easy
LEVEL:1
SCOREINIT:
SCOREDIFF:
NOTESDESIGNER0:Colin
#START
1,
0010,
1,
0010,
1,
1010,
1,
1010,
1,
1010,
1,
1010,
1,
2020,
2,
2020,
2,
2020,
2,
2020,
1,
1,
1,
1,
#GOGOSTART
4040,
4040,
6,
0080,
4040,
4040,
6,
0080,
1,
1010,
5,
,
8040,
4040,
6,
0080,
#GOGOEND
1,
1010,
1,
1010,
1010,
1,
1010,
1,
1010,
1,
,
,
1010,
1010,
,
,
#GOGOSTART
4040,
4040,
6,
0080,
4040,
4040,
6,
0080,
3,
3030,
6,
,
8040,
4040,
6,
0080,
100
#GOGOEND
0,
#GOGOSTART
10000
#GOGOEND
000,
#GOGOSTART
1010,
1,
#GOGOEND
1,
1010,
5,
0800,
#END
COURSE:Normal
LEVEL:2
SCOREINIT:
SCOREDIFF:
NOTESDESIGNER1:Colin
#START
1,
0010,
1,
0010,
1011,
1010,
1011,
1010,
1,
1011,
1010,
1110,
1,
2022,
2020,
2022,
2,
2022,
2020,
2220,
1010,
1010,
1010,
1,
#GOGOSTART
4242,
4242,
6,
0080,
4242,
4242,
6,
0080,
10001011,
1011,
5,
,
8042,
4242,
6,
0080,
#GOGOEND
1,
1110,
1010,
1110,
1010,
1110,
1010,
10111010,
1010,
1,
,
,
1010,
1010,
,
,
#GOGOSTART
4242,
4242,
6,
0080,
4242,
4242,
6,
0080,
3011,
30103011,
6,
,
8042,
4242,
6,
0080,
101
#GOGOEND
1,
#GOGOSTART
10001
#GOGOEND
000,
#GOGOSTART
1011,
1010,
#GOGOEND
1,
1010,
5,
0800,
#END
COURSE:Hard
LEVEL:4
BALLOON:4,4,16
SCOREINIT:
SCOREDIFF:
NOTESDESIGNER2:Colin
#START
1,
0010,
1,
0010,
10011100,
00011100,
00011101,
1111,
00022200,
00022200,
00011101,
1111,
01110111,
01110111,
02220222,
20202022,
01110111,
01110111,
01110111,
10101011,
1,
1,
1,
1,
#GOGOSTART
22111011,
10404430,
33333033,
33300000,
22111011,
10404430,
33333033,
33300222,
20022022,
20022010,
10101011,
01010101,
22111011,
10404430,
33333033,
33300000,
#GOGOEND
2020,
22222020,
2020,
2220,
2020,
22222020,
2020,
2220,
2,
2020,
2,
,
2020,
2020,
2,
,
#GOGOSTART
22111011,
10404430,
33333033,
33300000,
22111011,
10404430,
33333033,
33300222,
20000222,
20022000,
1111,
1111,
22111011,
10404430,
33333033,
33302020,
708
#GOGOEND
0,
#GOGOSTART
70008
#GOGOEND
000,
#GOGOSTART
10101011,
01010100,
#GOGOEND
7,
,
82222022,
22200000,
#END
COURSE:Oni
LEVEL:7
SCOREINIT:
SCOREDIFF:
NOTESDESIGNER3:Colin
#START
1011000000000000,
0000000010110000,
1011000000000000,
0000000020222020,
1011201022112020,
1011202010120210,
1011202012102010,
2011201020112022,
2012021210112022,
1012012020121022,
1012022011201020,
1022101010221022,
1022102011221020,
1022202010112020,
1022101011201010,
2011201011012022,
1021202011202022,
1020102010111020,
1020201011202010,
20211022,
100001111100,
100002211200,
100002211200,
1001002120212011,
#GOGOSTART
2010202010112020,
1010401040403022,
1011201010112010,
1011201110112020,
2010202010112020,
1010401040403022,
1011201010112010,
1011201110112020,
1011201110112020,
2011202010212020,
1002002010112040,
1030203011112020,
2010202010112020,
1010401040403022,
1011201010112010,
1011201110112020,
#GOGOEND
20211020,
12212020,
20001011,
12122000,
10211020,
12212020,
20001011,
12125008,
42121011,
10202210,
10210121,
10213032,
32121011,
10202210,
1000201000102011,
10210040,
#GOGOSTART
4010202010112020,
1010401040403022,
1011201010112010,
1011201110112020,
2010202010112020,
1010401040403022,
1011201010112010,
1011201110112020,
1011201110112020,
2011202010212020,
1002002010112040,
1030203011112020,
2010202010112020,
1010401040403022,
1011201010112010,
1011201110112020,
101120121110
#GOGOEND
2000,
#GOGOSTART
1121201210
#GOGOEND
10
#SCROLL 2
40
#SCROLL 1
20,
#GOGOSTART
1011202010112020,
1011201111012020,
#GOGOEND
42121011,
10202210,
11115811,
11100000,
#END