Files
2025-06-11 19:53:16 -04:00

359 lines
3.9 KiB
Plaintext

TITLE:Shut Down
SUBTITLE:--BLACKPINK
TITLEJA:Shut Down
SUBTITLEJA:BLACKPINK
BPM:220
WAVE:Shut Down.ogg
OFFSET:-2.494
DEMOSTART:54.3122
MAKER:Makotora / Colin
COURSE:Oni
LEVEL:8
SCOREINIT:
SCOREDIFF:
NOTESDESIGNER3:Makotora / Colin
#START
#MEASURE 6/4
#GOGOSTART
#SCROLL 0.5
102220201022,
200010201000200000001222,
102220201022,
200010201000200010002200,
102220201022,
200010201000200010001222,
102220201022,
200010201000200010002200,
#GOGOEND
102211201011,
200010201000400000001222,
112112101011,
200010201000400000002200,
112121201011,
200010201000400000001222,
111010
#SCROLL 2
400000,
#SCROLL 0.5
400030003000400000002200,
102221201011,
200010201000400000001222,
112122201011,
200010201000400010002200,
222121211011,
200010201000400000001222,
111010
#SCROLL 2
400000,
#SCROLL 0.5
400030003000400000002200,
111111211120,
100020001000200020002222,
200010200100100200100200100100200000,
122121,
211211212122,
100020001000200020002222,
222212121210,
433422,
#GOGOSTART
102220102120,
200010201010200010001222,
102120102220,
200010201010200010002200,
112121220010,
221212110020,
212010222020,
201211201020,
102220102120,
200010201010200010001222,
102120102220,
200010201010200010002200,
112121220010,
221212110020,
#GOGOEND
100111100200222200,
508
#SCROLL 1
2
#SCROLL 0.833333
2
#SCROLL 0.666667
2,
#SCROLL 0.5
300000111200200200,
222100100200100122,
100000122200200200,
211100100200200122,
100000121200200200,
212100100200100122,
100111100200200222,
211
#SCROLL 1
2
#SCROLL 0.833333
2
#SCROLL 0.666667
2,
#GOGOSTART
#SCROLL 0.5
300000200200101010200000200100200000,
202020100200100000200000100200102020,
100000200200102020200000200100200000,
201010100200100000200000100200102020,
100000200200102010200000200100200000,
201020100200100000200000100200102020,
#GOGOEND
100111100200222200,
508
#SCROLL 2
400,
#END
COURSE:Hard
LEVEL:5
SCOREINIT:
SCOREDIFF:
NOTESDESIGNER2:Makotora
#START
#MEASURE 6/4
#GOGOSTART
#SCROLL 0.5
102220200000,
201110200010,
102220200000,
201110200020,
102220200000,
201110200010,
102220200000,
201110200020,
#GOGOEND
101110201010,
201110400010,
101110201010,
201110400020,
101110201010,
201110400010,
111010400000,
433402,
101110201010,
201110400010,
101110201010,
201110400020,
101110201010,
201110400010,
111010400000,
433402,
111110200020,
101200,
222220100010,
202100,
111110200020,
101200,
222220100000,
433400,
#GOGOSTART
102220102020,
201110201010,
102220102020,
201110201020,
102222200000,
201111100000,
111222,
201110200020,
102220102020,
201110201010,
102220102020,
201110201020,
102222200010,
201111100000,
#GOGOEND
111222,
508000,
300222,
201010200011,
100222,
211202,
100222,
201010200011,
100222,
211202,
#GOGOSTART
302220202020,
201010200011,
102220202020,
211202,
102220202020,
201010200011,
#GOGOEND
111222,
508400,
#END
COURSE:Normal
LEVEL:5
BALLOON:4,4,4,4
SCOREINIT:
SCOREDIFF:
NOTESDESIGNER1:Colin
#START
#MEASURE 6/4
#GOGOSTART
#SCROLL 0.5
111100,
101100,
111100,
101100,
111100,
101100,
111100,
100200,
#GOGOEND
202200,
222200,
202200,
222200,
202200,
222200,
202200,
200200,
101100,
111100,
101100,
111100,
120100,
120100,
100100,
1,
101200,
100200,
101200,
100200,
101200,
100200,
111100,
100100,
#GOGOSTART
301200,
311200,
300200,
400200,
700800,
700800,
111100,
222200,
320320,
320000,
101100,
311100,
700800,
700800,
#GOGOEND
202202,
2,
101100,
111100,
101100,
111100,
101100,
111111,
100100,
1,
#GOGOSTART
422400,
422100,
422400,
422100,
411200,
311200,
#GOGOEND
101111,
400400,
#END
COURSE:Easy
LEVEL:2
BALLOON:4,4,4,4
SCOREINIT:
SCOREDIFF:
NOTESDESIGNER0:Colin
#START
#MEASURE 6/4
#GOGOSTART
#SCROLL 0.5
100100,
1,
100100,
1,
100100,
1,
100100,
1,
#GOGOEND
2,
2,
200200,
200200,
2,
200200,
2,
2,
100100,
1,
100100,
1,
100100,
100100,
1,
1,
100200,
1,
100200,
1,
100200,
100200,
100100,
1,
#GOGOSTART
300200,
300200,
3,
4,
700800,
700800,
100100,
200200,
300300,
3,
100100,
3,
700800,
700800,
#GOGOEND
200200,
2,
1,
100100,
1,
100100,
1,
100100,
1,
1,
#GOGOSTART
400400,
4,
400400,
400100,
4,
3,
#GOGOEND
1,
400400,
#END