generated from DragonRatTiger/Custom-Charts
367 lines
3.3 KiB
Plaintext
367 lines
3.3 KiB
Plaintext
TITLE:Beautiful fighter
|
||
TITLEJA:Beautiful fighter
|
||
SUBTITLE:--angela / Corpse Princess:Aka
|
||
SUBTITLEJA:angela「屍姫 赫」より
|
||
PREIMAGE:Beautiful fighter.jpg
|
||
BPM:165
|
||
OFFSET:-0.093
|
||
DEMOSTART:37.002
|
||
WAVE:Beautiful fighter.ogg
|
||
MAKER:Colin
|
||
|
||
COURSE:Oni
|
||
LEVEL:8
|
||
BALLOON:10
|
||
SCOREINIT:
|
||
SCOREDIFF:
|
||
NOTESDESIGNER3:Colin
|
||
|
||
#START
|
||
21112111,
|
||
21112111,
|
||
21112111,
|
||
200000100000100000100200101010101010101010101010,
|
||
22112111,
|
||
21112111,
|
||
21212111,
|
||
20121211,
|
||
70000800,
|
||
1022102012112000,
|
||
1010201000102012,
|
||
1210201210102010,
|
||
1210201212102010,
|
||
1010201000102022,
|
||
1010201010102012,
|
||
1010201212102010,
|
||
1210201012102010,
|
||
12211111,
|
||
11210120,
|
||
1010201012102000,
|
||
1010201210102000,
|
||
1010201022102010,
|
||
21121121,
|
||
21121121,
|
||
2010112011112010,
|
||
1020201022112222,
|
||
#GOGOSTART
|
||
11211121,
|
||
1010201010102012,
|
||
11211121,
|
||
11211121,
|
||
1011201020101010,
|
||
21212121,
|
||
20212120,
|
||
1010201210201111,
|
||
20211120,
|
||
10211120,
|
||
10210122,
|
||
11210212,
|
||
10210120,
|
||
11210120,
|
||
1210201000102010,
|
||
201020102222111
|
||
#GOGOEND
|
||
1,
|
||
#GOGOSTART
|
||
2010201020101210,
|
||
2010201120102010,
|
||
1010201210102012,
|
||
1010201010102022,
|
||
1010201210102010,
|
||
1110201111102010,
|
||
1010201211102012,
|
||
1110201020112222,
|
||
1010201010102012,
|
||
11211121,
|
||
1010201020102011,
|
||
21210121,
|
||
11210120,
|
||
10210120,
|
||
11211121,
|
||
22212212212
|
||
#GOGOEND
|
||
2,
|
||
#GOGOSTART
|
||
11212122,
|
||
#MEASURE 8/4
|
||
10201011201010
|
||
#GOGOEND
|
||
100000
|
||
#GOGOSTART
|
||
#SCROLL 4
|
||
3
|
||
#SCROLL 1
|
||
0
|
||
#GOGOEND
|
||
0000000000,
|
||
#END
|
||
|
||
|
||
COURSE:Hard
|
||
LEVEL:5
|
||
BALLOON:
|
||
SCOREINIT:
|
||
SCOREDIFF:
|
||
NOTESDESIGNER2:Colin
|
||
|
||
|
||
#START
|
||
#BARLINEOFF
|
||
0,
|
||
,
|
||
,
|
||
,
|
||
#BARLINEON
|
||
44000000,
|
||
4,
|
||
44000000,
|
||
60000008,
|
||
3,
|
||
3333,
|
||
1000201000111000,
|
||
11210120,
|
||
1000201000111000,
|
||
11210120,
|
||
1000201000111000,
|
||
11210120,
|
||
1000201000111000,
|
||
11210120,
|
||
50000008,
|
||
50000008,
|
||
5,
|
||
0008,
|
||
11120121,
|
||
21110120,
|
||
2022201000102000,
|
||
11250008,
|
||
#GOGOSTART
|
||
6,
|
||
8000201110102000,
|
||
6,
|
||
00801120,
|
||
6008,
|
||
2022202010200000,
|
||
6,
|
||
0000080010102220,
|
||
10210120,
|
||
10210120,
|
||
10210120,
|
||
10210120,
|
||
10210120,
|
||
10210120,
|
||
10210120,
|
||
201110002220100
|
||
#GOGOEND
|
||
0,
|
||
#GOGOSTART
|
||
6,
|
||
8000201110102000,
|
||
6,
|
||
00801120,
|
||
6008,
|
||
2022202010200060,
|
||
,
|
||
0000080010102220,
|
||
10210120,
|
||
10210120,
|
||
10210120,
|
||
10210120,
|
||
10210120,
|
||
10210120,
|
||
10210120,
|
||
5000000000000000000008
|
||
#GOGOEND
|
||
00,
|
||
#GOGOSTART
|
||
6,
|
||
0000000
|
||
#GOGOEND
|
||
0,
|
||
00
|
||
#GOGOSTART
|
||
8
|
||
#GOGOEND
|
||
00000,
|
||
#END
|
||
|
||
COURSE:Normal
|
||
LEVEL:4
|
||
BALLOON:
|
||
SCOREINIT:
|
||
SCOREDIFF:
|
||
NOTESDESIGNER1:Colin
|
||
|
||
|
||
#START
|
||
#BARLINEOFF
|
||
0,
|
||
,
|
||
,
|
||
,
|
||
#BARLINEON
|
||
44000000,
|
||
4,
|
||
44000000,
|
||
60000008,
|
||
3,
|
||
3333,
|
||
10110000,
|
||
10110000,
|
||
10110000,
|
||
10110220,
|
||
10110000,
|
||
10110000,
|
||
10110000,
|
||
10110000,
|
||
50000008,
|
||
50000008,
|
||
5,
|
||
0008,
|
||
10220000,
|
||
11010110,
|
||
22200000,
|
||
10250008,
|
||
#GOGOSTART
|
||
6,
|
||
8222,
|
||
6,
|
||
0811,
|
||
6008,
|
||
22202020,
|
||
6,
|
||
0000080000000000,
|
||
10110000,
|
||
10110000,
|
||
10110000,
|
||
10110000,
|
||
10110000,
|
||
10110000,
|
||
10110000,
|
||
100010100000000
|
||
#GOGOEND
|
||
0,
|
||
#GOGOSTART
|
||
6,
|
||
8222,
|
||
6,
|
||
0811,
|
||
6008,
|
||
20202026,
|
||
,
|
||
0000080010102000,
|
||
10110000,
|
||
10110000,
|
||
10110000,
|
||
10110000,
|
||
10110000,
|
||
10110000,
|
||
10110000,
|
||
5000000000000000000008
|
||
#GOGOEND
|
||
00,
|
||
#GOGOSTART
|
||
6,
|
||
0000000
|
||
#GOGOEND
|
||
0,
|
||
00
|
||
#GOGOSTART
|
||
8
|
||
#GOGOEND
|
||
00000,
|
||
#END
|
||
|
||
COURSE:Easy
|
||
LEVEL:2
|
||
BALLOON:
|
||
SCOREINIT:
|
||
SCOREDIFF:
|
||
NOTESDESIGNER0:Colin
|
||
|
||
|
||
#START
|
||
#BARLINEOFF
|
||
,
|
||
,
|
||
,
|
||
,
|
||
#BARLINEON
|
||
4,
|
||
4,
|
||
4,
|
||
4,
|
||
6,
|
||
0008,
|
||
1,
|
||
1,
|
||
1,
|
||
1,
|
||
1,
|
||
1,
|
||
1,
|
||
1010,
|
||
50000008,
|
||
50000008,
|
||
5,
|
||
0008,
|
||
2020,
|
||
2020,
|
||
2020,
|
||
2,
|
||
#GOGOSTART
|
||
6,
|
||
0080,
|
||
6,
|
||
0080,
|
||
6,
|
||
,
|
||
,
|
||
0080,
|
||
1010,
|
||
1010,
|
||
1010,
|
||
1,
|
||
1010,
|
||
1010,
|
||
1010,
|
||
100000000000000
|
||
#GOGOEND
|
||
0,
|
||
#GOGOSTART
|
||
6,
|
||
0080,
|
||
6,
|
||
0080,
|
||
6,
|
||
,
|
||
,
|
||
0080,
|
||
1020,
|
||
1,
|
||
1020,
|
||
1,
|
||
1020,
|
||
1,
|
||
1020,
|
||
5000000000000000000008
|
||
#GOGOEND
|
||
00,
|
||
#GOGOSTART
|
||
6,
|
||
0000000
|
||
#GOGOEND
|
||
0,
|
||
00
|
||
#GOGOSTART
|
||
8
|
||
#GOGOEND
|
||
00000,
|
||
#END
|
||
|
||
|
||
|
||
|
||
|
||
|
||
|