generated from DragonRatTiger/Custom-Charts
397 lines
3.6 KiB
Plaintext
397 lines
3.6 KiB
Plaintext
TITLE:Hero
|
||
SUBTITLE:--YOASOBI / Frieren:Beyond Journey's End
|
||
TITLEJA:勇者
|
||
SUBTITLEJA:YOASOBI 「葬送のフリーレン」より
|
||
PREIMAGE:Hero.jpg
|
||
BGMOVIE:Hero.mp4
|
||
WAVE:Hero.ogg
|
||
BPM:208
|
||
OFFSET:-0.783
|
||
DEMOSTART:58.475
|
||
MAKER:Colin
|
||
|
||
COURSE:Easy
|
||
LEVEL:2
|
||
SCOREINIT:
|
||
SCOREDIFF:
|
||
NOTESDESIGNER0:Colin
|
||
|
||
#START
|
||
1,
|
||
,
|
||
1,
|
||
,
|
||
1,
|
||
,
|
||
1,
|
||
,
|
||
1010,
|
||
1,
|
||
1010,
|
||
1,
|
||
1010,
|
||
1,
|
||
1010,
|
||
1,
|
||
2,
|
||
#GOGOSTART
|
||
2020,
|
||
2,
|
||
2022,
|
||
2,
|
||
2020,
|
||
2,
|
||
2022,
|
||
2010,
|
||
#GOGOEND
|
||
3,
|
||
,
|
||
3,
|
||
,
|
||
3,
|
||
,
|
||
3,
|
||
1,
|
||
1020,
|
||
1,
|
||
1020,
|
||
1,
|
||
1020,
|
||
1,
|
||
1020,
|
||
1,
|
||
2,
|
||
2,
|
||
2,
|
||
1,
|
||
1010,
|
||
1,
|
||
1010,
|
||
5,
|
||
8,
|
||
0000000
|
||
#GOGOSTART
|
||
4,
|
||
00000002,
|
||
00000001,
|
||
00001001,
|
||
,
|
||
1020,
|
||
1,
|
||
2020,
|
||
20000001,
|
||
00000002,
|
||
00000001,
|
||
00002001,
|
||
0010,
|
||
1020,
|
||
1020,
|
||
2,
|
||
100
|
||
#GOGOEND
|
||
00000,
|
||
#GOGOSTART
|
||
1020,
|
||
1,
|
||
1020,
|
||
1,
|
||
1020,
|
||
1,
|
||
1020,
|
||
1,
|
||
#GOGOEND
|
||
2,
|
||
0200,
|
||
#END
|
||
|
||
COURSE:Normal
|
||
LEVEL:3
|
||
SCOREINIT:
|
||
SCOREDIFF:
|
||
NOTESDESIGNER1:Colin
|
||
|
||
#START
|
||
1,
|
||
1,
|
||
1,
|
||
,
|
||
1,
|
||
1010,
|
||
1,
|
||
,
|
||
1010,
|
||
1210,
|
||
1010,
|
||
1210,
|
||
1010,
|
||
1210,
|
||
1010,
|
||
1,
|
||
2,
|
||
#GOGOSTART
|
||
2020,
|
||
2220,
|
||
2022,
|
||
20222000,
|
||
2020,
|
||
2,
|
||
2022,
|
||
2010,
|
||
#GOGOEND
|
||
3,
|
||
2,
|
||
3,
|
||
2,
|
||
3,
|
||
2,
|
||
3,
|
||
1020,
|
||
1020,
|
||
1110,
|
||
1020,
|
||
1110,
|
||
1020,
|
||
1,
|
||
1020,
|
||
10010010,
|
||
2,
|
||
2010,
|
||
2,
|
||
1011,
|
||
1010,
|
||
1020,
|
||
1010,
|
||
5,
|
||
8,
|
||
0000000
|
||
#GOGOSTART
|
||
4,
|
||
00000002,
|
||
00001001,
|
||
00001001,
|
||
0011,
|
||
1020,
|
||
1020,
|
||
2220,
|
||
20000001,
|
||
00011002,
|
||
00001001,
|
||
00002001,
|
||
01101000,
|
||
1020,
|
||
1020,
|
||
2,
|
||
100
|
||
#GOGOEND
|
||
00000,
|
||
#GOGOSTART
|
||
1020,
|
||
1110,
|
||
1020,
|
||
1011,
|
||
1020,
|
||
1011,
|
||
1020,
|
||
1020,
|
||
#GOGOEND
|
||
2,
|
||
0200,
|
||
#END
|
||
|
||
COURSE:Hard
|
||
LEVEL:5
|
||
SCOREINIT:
|
||
SCOREDIFF:
|
||
NOTESDESIGNER2:Colin
|
||
|
||
#START
|
||
02120112,
|
||
01020202,
|
||
01220121,
|
||
02010201,
|
||
02212102,
|
||
02020200,
|
||
5080,
|
||
10020110,
|
||
01120212,
|
||
01010202,
|
||
02210112,
|
||
02020110,
|
||
01112201,
|
||
01020100,
|
||
10022222,
|
||
21020210,
|
||
10210122,
|
||
#GOGOSTART
|
||
10221210,
|
||
20112010,
|
||
10221222,
|
||
2121,
|
||
10012020,
|
||
11210120,
|
||
10210122,
|
||
10222010,
|
||
#GOGOEND
|
||
02220202,
|
||
00110201,
|
||
01020221,
|
||
02001010,
|
||
11222201,
|
||
02010100,
|
||
50008012,
|
||
21010120,
|
||
01222202,
|
||
01020102,
|
||
02110201,
|
||
02010210,
|
||
01222202,
|
||
01020100,
|
||
1002,
|
||
11020210,
|
||
12021022,
|
||
22100011,
|
||
21022011,
|
||
02100222,
|
||
21021120,
|
||
2122,
|
||
1020,
|
||
20025000,
|
||
8,
|
||
0000400
|
||
#GOGOSTART
|
||
4,
|
||
02010222,
|
||
02021112,
|
||
02112212,
|
||
01201110,
|
||
1212,
|
||
1212,
|
||
1222,
|
||
01201112,
|
||
02122222,
|
||
02011121,
|
||
02222211,
|
||
01201020,
|
||
1212,
|
||
1212,
|
||
10001012,
|
||
120
|
||
#GOGOEND
|
||
20210,
|
||
#GOGOSTART
|
||
12022011,
|
||
20210102,
|
||
02021010,
|
||
22010102,
|
||
11012022,
|
||
10210101,
|
||
01202022,
|
||
12021220,
|
||
#GOGOEND
|
||
10022201,
|
||
01200000,
|
||
#END
|
||
|
||
COURSE:Oni
|
||
LEVEL:8
|
||
SCOREINIT:
|
||
SCOREDIFF:
|
||
NOTESDESIGNER3:Colin
|
||
|
||
#START
|
||
1020002220202010,
|
||
01020202,
|
||
12021221,
|
||
02020202,
|
||
1010202220100020,
|
||
01020211,
|
||
22020222,
|
||
22020210,
|
||
1010202220201020,
|
||
0022201020102020,
|
||
1010201011101020,
|
||
0022102010101022,
|
||
1010201220202010,
|
||
0022101020101011,
|
||
11122222,
|
||
2011101020102220,
|
||
1111222210002020,
|
||
#GOGOSTART
|
||
1011102000201110,
|
||
2020101020112000,
|
||
1011102000201011,
|
||
2010201030003022,
|
||
1011102000201010,
|
||
2010201120201000,
|
||
1011102000102020,
|
||
2022201020102000,
|
||
#GOGOEND
|
||
11120202,
|
||
202020200100000200100100,
|
||
11020221,
|
||
202020200100202020101010,
|
||
11222212,
|
||
202020200100000200100000,
|
||
11212122,
|
||
200100000100200222100200,
|
||
1010202220201020,
|
||
0010101110102020,
|
||
1010101110200010,
|
||
1020222000201022,
|
||
11122212,
|
||
02212102,
|
||
1022102020102000,
|
||
21020210,
|
||
12021022,
|
||
101010200100200200100100,
|
||
21022011,
|
||
200020002000100000200000100100100100200200200200,
|
||
1020002010112010,
|
||
21212120,
|
||
122111211221,
|
||
102020101010100100200000,
|
||
20221020,
|
||
00000000400000
|
||
#GOGOSTART
|
||
#SCROLL 2
|
||
4
|
||
#SCROLL 1
|
||
0,
|
||
0010222210201020,
|
||
11201020112020
|
||
#SCROLL 1.5
|
||
40,
|
||
#SCROLL 1
|
||
0010201110102010,
|
||
0010201212102010,
|
||
1010222210112222,
|
||
1010222210111010,
|
||
#SCROLL 2
|
||
4
|
||
#SCROLL 1
|
||
010201120102010,
|
||
0010201211112220,
|
||
1011201010112010,
|
||
0011201011102010,
|
||
0010221120102010,
|
||
0010201110102010,
|
||
2011201020112010,
|
||
2011201020112010,
|
||
2010201110102020,
|
||
120
|
||
#GOGOEND
|
||
20210,
|
||
#GOGOSTART
|
||
3010222210102222,
|
||
1010222210102222,
|
||
1010222210102222,
|
||
1010222211112222,
|
||
1010222210102222,
|
||
1010222211112222,
|
||
1010222210102222,
|
||
1010222210102020,
|
||
#GOGOEND
|
||
1020001120100010,
|
||
01200000,
|
||
#END
|