Files
2025-06-11 19:53:16 -04:00

341 lines
3.6 KiB
Plaintext

TITLE:Jet Set Run
SUBTITLE:--Yuki Hayashi / My Hero Academia
SUBTITLEJA:「僕のヒーローアカデミア」より
BPM:180
WAVE:Jet-Set-Run.ogg
OFFSET:-11.068
DEMOSTART:56.401
MAKER:Colin
COURSE:Oni
LEVEL:9
BALLOON:
SCOREINIT:
SCOREDIFF:
NOTESDESIGNER3:Colin
#START
1011201122112011,
2011202211112012,
1011201122112011,
2011201111112012,
1011201122112011,
2010201111112022,
1011201122112011,
2010201111112022,
1011202211112111,
2012102222112021,
2011200010102000,
1010201111112222,
1011202010112020,
1011201110112022,
1010201110112011,
1011201111112000,
1111222211112000,
1001201000112000,
1010201020221020,
0011211110102011,
1010201110112022,
1010202210102010,
1010201110102010,
0011201010102010,
0011201122112211,
2011201110102011,
1011201010102010,
2010202210102010,
0010202220102000,
1111201122222022,
1011201010102010,
0011202210102010,
0011201122112211,
2000001121112111,
1011201122112010,
0011202010112010,
1011201120112010,
0011201212121020,
1001201120102010,
0011201120111011,
2111200010222010,
0011201020112222,
1011200010102020,
0022101000111120,
1011200010112010,
0010200011112010,
2010201120212010,
0011202211112022,
1001201020102010,
0011201000112222,
1000200210201020,
0011201110102000,
11212212,
0011202211112211,
2011201122112020,
0011201110102010,
2011212020101020,
1010101020221122,
1010201110102010,
0011201120222022,
1011201220211120,
0011201110102111,
2010201210102010,
0011201120112222,
1010211011112010,
0011202210101120,
01212012,
02222222,
1001201021112010,
11011011,
1,
#END
COURSE:Hard
LEVEL:6
BALLOON:
SCOREINIT:
SCOREDIFF:
NOTESDESIGNER2:Colin
#START
11212121,
21221121,
11212121,
21211121,
11212121,
21211122,
11212121,
21211122,
11221121,
21122122,
21201120,
11211122,
11221122,
1010201110102020,
1010201110102011,
11211120,
11221120,
10210120,
11212212,
0010201010102011,
1010201110102020,
11221121,
1010201110102010,
01211121,
01212121,
2010201110102011,
11211121,
21221121,
0010202220102000,
11212222,
11211121,
01221121,
01212121,
20012121,
11212121,
01221121,
11212121,
01211112,
10212121,
01212111,
2010200010222010,
01212122,
11201122,
02110112,
11201121,
01201121,
21212221,
01221122,
10212121,
01210122,
10201212,
01211120,
11212212,
01221121,
21212122,
0010201110102010,
21222112,
11112212,
11211121,
0010201020222020,
11212212,
0010001110102010,
21211121,
01212122,
11211121,
01221112,
01212012,
02222222,
10212121,
11011011,
1,
#END
COURSE:Normal
LEVEL:5
BALLOON:
SCOREINIT:
SCOREDIFF:
NOTESDESIGNER1:Colin
#START
1111,
10210120,
1222,
2222,
1222,
2212,
1222,
2212,
10201120,
21101122,
1212,
10210122,
11201020,
10210122,
11001121,
00211120,
1212,
10210120,
11212010,
10211120,
10211120,
10221121,
10101121,
01210121,
01212121,
20101121,
00211120,
11201121,
01222120,
11202222,
01210121,
01220121,
01212121,
00012101,
1222,
01010101,
11202121,
01010102,
10202021,
01010111,
20001021,
01210022,
1212,
00210112,
01201121,
01201120,
21202221,
01210122,
10212121,
01210122,
1211,
01010100,
11002212,
01201021,
0222,
01011120,
2221,
1121,
10201021,
01010020,
10202012,
01010120,
20201121,
01210102,
11210121,
01201012,
01212012,
02222222,
1221,
10011011,
1,
#END
COURSE:Easy
LEVEL:3
BALLOON:
SCOREINIT:
SCOREDIFF:
NOTESDESIGNER0:Colin
#START
1,
1002,
1,
2002,
1002,
2012,
1022,
2012,
1002,
2002,
1012,
1212,
1002,
1202,
1112,
1212,
50000008,
11,
11,
1202,
1212,
1012,
1012,
1012,
1222,
2112,
1212,
1210,
1222,
12,
11,
10002001,
00002121,
00012001,
1222,
01010100,
00201001,
01010100,
1022,
01010101,
10001011,
01010020,
1212,
00200112,
01201020,
1212,
20202021,
01010102,
1222,
01010102,
1211,
01010100,
11002012,
01201001,
0222,
01010020,
0201,
1021,
10001021,
00010020,
10202002,
01010020,
20201021,
01010102,
10210121,
00201002,
00202002,
02020202,
1221,
10011011,
1,
#END