Files
2025-06-11 19:53:16 -04:00

355 lines
3.4 KiB
Plaintext
Raw Permalink Blame History

This file contains ambiguous Unicode characters
This file contains Unicode characters that might be confused with other characters. If you think that this is intentional, you can safely ignore this warning. Use the Escape button to reveal them.
TITLE:Kaerimichi
SUBTITLE:--Mayoi Hachikuji (CV:Emiri Katou) / Bakemonogatari
BPM:175
WAVE:Kaerimichi.ogg
OFFSET:-0.041
DEMOSTART:54.726
BGMOVIE:.mp4
MAKER:Colin
COURSE:Oni
LEVEL:10
BALLOON:10
SCOREINIT:
SCOREDIFF:
NOTESDESIGNER3:Colin
#START
1211112122121122,
1210112120121121,
2010112122121022,
2222222222203000,
#GOGOSTART
1211201210212012,
1211201210212012,
1211201210212012,
1211201210212012,
1211201210212012,
1211201210212010,
33333333,
03030608,
#GOGOEND
1022102210121020,
1022102210121020,
1021202210121022,
1030003030112022,
1022102210121020,
1022102210121020,
1012102120121020,
0030003030112022,
1011202210200010,
2211201210221022,
1011211120200022,
2222222222222220,
4022102210121020,
1022102210121020,
1021202210121022,
1030003030112022,
1022102210121020,
1022102210121020,
1012102120121020,
0030003030112022,
1012102211112012,
1011221210221020,
1211202210112012,
1022102210102120,
3011221120101000,
3030112211221010,
33033033,
0030003030001022,
#GOGOSTART
1211201210212012,
1211201210212012,
1211201210212012,
1211201210212012,
1211201210212012,
1211201210212022,
1012121120102030,
03333040,
1211201210212012,
1211201210212012,
1211201210212012,
1211201210212012,
1211201210212012,
1211201210212020,
60860081,
0022102030003000,
#GOGOEND
10010101,
01202020,
01020102,
100040004000
#GOGOSTART
1211,
2012102120121211,
2012102120121211,
2012102120121030,
03060870,
000
#GOGOEND
8,
#END
COURSE:Hard
LEVEL:6
BALLOON:
SCOREINIT:
SCOREDIFF:
NOTESDESIGNER2:Colin
#START
5,
00000008,
50000087,
00000840,
#GOGOSTART
1010101110101000,
1010101110101000,
1010101110101000,
1010101110101000,
1010101110101000,
1010101110101000,
30030030,
03030300,
#GOGOEND
1000200010000011,
11202000,
2022202220222020,
03033021,
1000200010000011,
11202000,
2022202220222020,
03033020,
11210120,
11210120,
11210127,
00000008,
1000200010000011,
11202000,
2022202220222020,
03033020,
1000200010000011,
11202000,
2022202220222020,
03033020,
1120,
1120,
10210201,
01201120,
33330368,
33330333,
33033033,
03033020,
#GOGOSTART
1020101110102000,
1020101110102000,
1020101110102000,
1020101110102000,
1020101110102000,
1020101110102000,
1020101110102030,
03333040,
1020101110102000,
1020101110102000,
1020101110102000,
1020101110102000,
1020101110102030,
03303030,
60000081,
01221020,
#GOGOEND
10010102,
02102020,
01020101,
200040001000
#GOGOSTART
1011,
1010101110200010,
21012230,
03003003,
03060870,
00000
#GOGOEND
800,
#END
COURSE:Normal
LEVEL:5
BALLOON:
SCOREINIT:
SCOREDIFF:
NOTESDESIGNER1:Colin
#START
#BARLINEOFF
0,
0,
0,
0,
#BARLINEON
#GOGOSTART
1110,
1210,
1110,
1210,
1110,
1210,
30030030,
03030300,
#GOGOEND
1110,
1110,
2222,
01011000,
1110,
1110,
2222,
01011020,
1110,
1210,
1110,
1210,
1110,
1110,
2222,
01011000,
1110,
1110,
2222,
01011000,
1,
1,
1,
1,
3,
3,
33033033,
03033020,
#GOGOSTART
1012,
1012,
1012,
1012,
1012,
1012,
1015,
0008,
1012,
1012,
1012,
1012,
1012,
1012,
5008,
1011,
#GOGOEND
1,
0011,
00000100,
12
#GOGOSTART
05,
0,
0083,
03003003,
03030050,
00000
#GOGOEND
800,
#END
COURSE:Easy
LEVEL:2
BALLOON:
SCOREINIT:
SCOREDIFF:
NOTESDESIGNER0:Colin
#START
#BARLINEOFF
0,
0,
0,
0,
#BARLINEON
#GOGOSTART
11,
11,
11,
11,
11,
11,
3003,
03030300,
#GOGOEND
1,
1,
2,
01001000,
1,
1,
2,
01001000,
1,
1,
1,
1,
1,
1,
2,
01001000,
1,
1,
2002,
01001000,
1,
1,
1,
1,
3,
3,
30003003,
03033020,
#GOGOSTART
11,
11,
11,
11,
11,
11,
1015,
0008,
11,
11,
11,
11,
11,
11,
5008,
1011,
#GOGOEND
1,
0011,
00000100,
12
#GOGOSTART
05,
0,
0083,
03003003,
00030050,
00000
#GOGOEND
800,
#END