Files
2025-06-11 19:53:16 -04:00

338 lines
2.7 KiB
Plaintext

TITLE:MIND CONDUCTOR
SUBTITLE:--YURiKA / Little Witch Academia
SUBTITLEJA:YURiKA 「リトルウィッチアカデミア」より
PREIMAGE:MIND CONDUCTOR.jpg
BPM:180
WAVE:MIND CONDUCTOR.ogg
OFFSET:-0.305
DEMOSTART:55.305
MAKER:Colin
COURSE:Oni
LEVEL:8
BALLOON:
SCOREINIT:
SCOREDIFF:
NOTESDESIGNER3:Colin
#START
21120211,
01121122,
21120221,
0010202020202222,
#GOGOSTART
10121212,
11211121,
11211121,
11211122,
11211212,
11211121,
11211121,
1020102011112222,
#GOGOEND
10211212,
12121221,
11221212,
1020102020121112,
10212121,
0010200010112010,
1000201000102120,
1010201010112000,
10210122,
1010222212102000,
10212112,
1010201121112020,
11212122,
1010202011102000,
1010201210201020,
11221120,
10212121,
2010201012102000,
1011202020202020,
22111112,
11221121,
0010201120102020,
1000201021112011,
12212111,
10221212,
12121212,
11221122,
11221122,
1010201121112211,
2222,
#GOGOSTART
10212121,
2010201020102211,
21212121,
21212121,
21212121,
21212121,
21212121,
2011201020101010,
20212121,
11211121,
12121212,
12121212,
11121212,
12121212,
12121212,
12212111,
#GOGOEND
1111,
1111,
1111,
1000100010002022,
10121020,
12121020,
1010200022112210,
01010000,
#END
COURSE:Hard
LEVEL:5
BALLOON:
SCOREINIT:
SCOREDIFF:
NOTESDESIGNER2:Colin
#START
20120201,
01021020,
21020201,
01202020,
#GOGOSTART
10121012,
10211021,
10211021,
10211020,
11201210,
11201120,
11201120,
12101122,
#GOGOEND
10210210,
12021010,
11201210,
12102111,
10210121,
01201120,
10210120,
10210120,
10210120,
11220120,
10210110,
11012120,
10210120,
11011020,
10210212,
01201020,
10210120,
01202020,
10220220,
22011012,
10221021,
01210120,
10212021,
02210110,
10221012,
10121012,
10221022,
10221022,
1000201011102010,
2222,
#GOGOSTART
10212021,
2000201020002011,
11202120,
21202120,
21202120,
21202120,
21202120,
21212011,
20212021,
10211021,
10121012,
10121012,
10121012,
10121012,
10121012,
10112011,
#GOGOEND
5,
,
8111,
10101022,
5,
0008,
11202121,
01010000,
#END
COURSE:Normal
LEVEL:3
BALLOON:
SCOREINIT:
SCOREDIFF:
NOTESDESIGNER1:Colin
#START
1110,
1110,
1110,
1110,
#GOGOSTART
6,
,
8222,
0222,
6,
,
8111,
1011,
#GOGOEND
1101,
1,
1100,
1100,
5082,
2010,
1010,
1010,
1110,
1110,
1111,
1,
5,
8022,
2020,
2022,
2022,
2022,
5,
,
8010,
1011,
1010,
1110,
1010,
1110,
1110,
1110,
5,
8,
#GOGOSTART
1120,
1120,
2220,
2220,
1120,
1120,
5,
,
8020,
2020,
2020,
2220,
1010,
1010,
1110,
2220,
#GOGOEND
5,
,
8,
,
5,
,
,
00080000,
#END
COURSE:Easy
LEVEL:1
BALLOON:
SCOREINIT:
SCOREDIFF:
NOTESDESIGNER0:Colin
#START
1010,
1,
1010,
1,
#GOGOSTART
6,
,
8,
,
6,
,
8,
1010,
#GOGOEND
1,
1010,
1,
1010,
5080,
2,
1,
1,
1,
1,
1010,
1,
5,
8,
2020,
2,
2020,
2002,
5,
,
8010,
1,
1,
1010,
1,
1010,
1,
1010,
5,
8,
#GOGOSTART
1020,
1020,
2020,
2020,
1020,
1020,
5,
,
8,
2,
2,
2020,
1,
1,
1010,
2,
#GOGOEND
5,
,
8,
,
5,
,
,
00080000,
#END