Files
2025-06-11 19:53:16 -04:00

379 lines
3.0 KiB
Plaintext
Raw Permalink Blame History

This file contains ambiguous Unicode characters
This file contains Unicode characters that might be confused with other characters. If you think that this is intentional, you can safely ignore this warning. Use the Escape button to reveal them.
TITLE:Mahi
SUBTITLE:--yama / 2.43:Seiin High School Boys Volleyball Team
TITLEJA:麻痺
SUBTITLEJA:yama 「2.43 清陰高校男子バレー部」より
PREIMAGE:Mahi.png
BPM:200
OFFSET:-0.041
DEMOSTART:50.541
WAVE:Mahi.ogg
MAKER:Colin
COURSE:Oni
LEVEL:9
SCOREINIT:
SCOREDIFF:
NOTESDESIGNER3:Colin
#START
#MEASURE 2/4
0222,
#MEASURE 4/4
20120201,
20120022,
2222,
20000111,
20120202,
01120221,
10220101,
20210222,
#GOGOSTART
30212121,
0020201020102222,
10201122,
0010201000102222,
10212121,
0020201020102222,
10202122,
1010201011112020,
#GOGOEND
10210020,
00201122,
10120220,
00201120,
10210120,
10201122,
10210122,
1010201020202210,
10211120,
10211120,
10212120,
11212022,
10211120,
1000201020102222,
10210120,
11210222,
22201122,
20221020,
10212120,
1010201120101010,
4022201111221022,
1012102222112022,
1122112211221122,
1122112211221122,
22220202,
02000000,
#GOGOSTART
40210121,
20210122,
1111201011112000,
21212111,
20210122,
11220121,
20210122,
11210122,
40220121,
20210121,
1111201011112000,
21212111,
20210122,
11210121,
20210122,
1010201011112020,
#GOGOEND
40212121,
21212121,
21212121,
21212122,
40212121,
21212121,
21212121,
2010202220202020,
#GOGOSTART
30212121,
0020201020102222,
10201122,
0010201000102222,
10212121,
0020201020101111,
2111112211112222,
#GOGOEND
2,
#END
COURSE:Hard
LEVEL:4
SCOREINIT:
SCOREDIFF:
NOTESDESIGNER2:Colin
#START
#MEASURE 2/4
,
#MEASURE 4/4
20020000,
20020000,
20020000,
2,
20020000,
20020000,
20020000,
2,
#GOGOSTART
10210120,
11210120,
10210120,
11210120,
10210120,
11210120,
10210120,
11210120,
#GOGOEND
10010010,
00101110,
10110110,
0200,
20020020,
00202202,
20220220,
00001222,
1212,
1212,
0222,
10201021,
0222,
10212021,
20212020,
22220202,
2212,
1222,
0222,
20212020,
20222200,
00222200,
0222,
4440,
,
,
#GOGOSTART
20210120,
10210122,
1110200011102000,
1,
10210120,
11210120,
10220201,
10000111,
20210120,
10210122,
1110200011102000,
1,
10210120,
11210120,
10220201,
1,
#GOGOEND
21202120,
21202120,
21202120,
21202120,
21202120,
2222,
22222022,
,
#GOGOSTART
10210120,
10210120,
10210120,
10210120,
10210120,
11210120,
1110102010000000,
#GOGOEND
4,
#END
COURSE:Normal
LEVEL:3
SCOREINIT:
SCOREDIFF:
NOTESDESIGNER1:Colin
#START
#MEASURE 2/4
,
#MEASURE 4/4
20020000,
20020000,
20020000,
2,
20020000,
20020000,
20020000,
2,
#GOGOSTART
1010,
1,
1010,
1,
1010,
1,
1010,
1,
#GOGOEND
1,
2,
2,
1,
1,
2,
2,
1,
2020,
2220,
1010,
1110,
1010,
1110,
1010,
1,
2020,
2220,
1020,
1220,
2020,
2022,
2020,
2220,
,
,
#GOGOSTART
1011,
1010,
1,
1,
1011,
2020,
2020,
2,
1011,
1010,
1110,
1,
2020,
2220,
2020,
2,
#GOGOEND
1011,
1010,
1011,
1010,
2022,
2020,
2022,
2020,
#GOGOSTART
2020,
1020,
2010,
1,
2020,
1022,
5,
#GOGOEND
8,
#END
COURSE:Easy
LEVEL:2
SCOREINIT:
SCOREDIFF:
NOTESDESIGNER0:Colin
#START
#MEASURE 2/4
,
#MEASURE 4/4
2,
2,
2020,
2,
2,
2,
2,
2,
#GOGOSTART
1,
1,
1,
1,
1,
1,
1,
1,
#GOGOEND
1,
,
2,
,
1,
,
2,
,
2020,
2,
1010,
1,
1010,
1,
1,
1,
2,
2,
1,
1,
2020,
2,
2020,
2,
,
,
#GOGOSTART
1,
1010,
1,
1,
1,
2020,
2,
2,
1,
1,
1010,
1,
2,
2,
2020,
2,
#GOGOEND
1,
1,
1010,
1,
2,
2,
2,
2020,
#GOGOSTART
2,
1,
2,
1,
2,
1,
5,
#GOGOEND
8,
#END