Files
2025-06-11 19:53:16 -04:00

264 lines
2.7 KiB
Plaintext
Raw Permalink Blame History

This file contains ambiguous Unicode characters
This file contains Unicode characters that might be confused with other characters. If you think that this is intentional, you can safely ignore this warning. Use the Escape button to reveal them.
TITLE:Memento
TITLEJA:メメント
SUBTITLE:--nonoc / Re:ZERO -Starting Life in Another World-
SUBTITLEJA:nonoc 「Re:ゼロから始める異世界生活」より
PREIMAGE:Memento.jpg
BPM:125
WAVE:Memento.ogg
OFFSET:-0.065
DEMOSTART:46.077
MAKER:Colin
COURSE:Oni
LEVEL:8
SCOREINIT:
SCOREDIFF:
NOTESDESIGNER3:Colin
#START
#MEASURE 2/4
1222,
#MEASURE 4/4
10121022,
11111010,
20012002,
11105008,
#GOGOSTART
1021011022221020,
1021021011222022,
2012012011221022,
1021012211212010,
#GOGOEND
1010102010102110,
2012021022102110,
1012021012102102,
1021012012102102,
1011202022102101,
1011012012102122,
2012021122102120,
1012021011011020,
20201002,
11111000,
00201002,
5000000080001120,
1021120212102210,
1122121011201211,
1000101120002022,
10002212,
#GOGOSTART
1021012011210120,
2021101010210120,
1021012010210122,
2011202210221020,
2012021022120210,
1022102010210120,
1021012010210120,
1021012211201022,
1011202212112010,
1021202012112120,
1021202011212022,
10102010200020201011101020102000,
2021201122121222,
1021201122112120,
1021201112112022,
10102010201020201011101010101010,
1021011022221020,
1021021011222022,
2012012011221022,
1021201011212020,
#GOGOEND
#SCROLL 1.1
300
#SCROLL 1.3
300
#SCROLL 1.5
300
#SCROLL 1.7
300
#SCROLL 1.9
3000,
#END
COURSE:Hard
LEVEL:4
SCOREINIT:
SCOREDIFF:
NOTESDESIGNER2:Colin
#START
#MEASURE 2/4
,
#MEASURE 4/4
2020,
22222020,
2020,
22202000,
#GOGOSTART
1011001010000020,
1000222020000000,
1001001010000000,
1011,
#GOGOEND
10111000,
1,
0010101110101020,
1111,
02222222,
2000000000000011,
1000001110000020,
1,
00101001,
11102000,
00101001,
1,
0220,
22222000,
2020,
2,
#GOGOSTART
1000101110002020,
22222020,
1110200010102000,
1010100020202220,
20112022,
22222001,
10121022,
2000000010101011,
10111022,
22222010,
10021001,
22102222,
20222022,
2020202220000000,
2000001110000010,
50000008,
1011011010000000,
2022022010001010,
1001001011101000,
1000100011101000,
#GOGOEND
3003003003003000,
#END
COURSE:Normal
LEVEL:4
SCOREINIT:
SCOREDIFF:
NOTESDESIGNER1:Colin
#START
#MEASURE 2/4
,
#MEASURE 4/4
2020,
2020,
2020,
2050,
#GOGOSTART
80001110,
1010,
10001110,
1011,
#GOGOEND
1020,
1,
1021,
1111,
0011,
1002,
10001002,
1,
2010,
2010,
2010,
5080,
0120,
2120,
2020,
2,
#GOGOSTART
10111010,
1010,
10111010,
10001011,
1110,
10111000,
20222020,
20000022,
10001011,
1011,
1011,
11100010,
2021,
2220,
20222022,
5,
80001011,
1010,
10001110,
1011,
#GOGOEND
3003,
#END
COURSE:Easy
LEVEL:2
SCOREINIT:
SCOREDIFF:
NOTESDESIGNER0:Colin
#START
#MEASURE 2/4
,
#MEASURE 4/4
2020,
2020,
2020,
2050,
#GOGOSTART
8011,
1010,
0011,
1010,
#GOGOEND
1,
1,
1001,
1111,
0010,
1,
1010,
1,
2,
2,
2,
5080,
0020,
2020,
2020,
2,
#GOGOSTART
1011,
1010,
1011,
1010,
1010,
1010,
2020,
2,
1010,
1010,
1010,
1,
2020,
2,
2020,
5,
8,
1010,
0010,
1010,
#GOGOEND
3003,
#END