Files
2025-06-11 19:53:16 -04:00

396 lines
4.0 KiB
Plaintext
Raw Permalink Blame History

This file contains ambiguous Unicode characters
This file contains Unicode characters that might be confused with other characters. If you think that this is intentional, you can safely ignore this warning. Use the Escape button to reveal them.
TITLE:Mikazuki
SUBTITLE:--Sayuri / Ranpo Kitan:Game of Laplace
TITLEJA:ミカヅキ
SUBTITLEJA:さユり 「乱歩奇譚 Game of Laplace」より
PREIMAGE:Mikazuki.png
BGMOVIE:Mikazuki.mp4
WAVE:Mikazuki.ogg
BPM:125.973
OFFSET:-0.622
DEMOSTART:30.9856
GENRE:アニメ
MAKER:Colin
COURSE:Easy
LEVEL:3
SCOREINIT:
SCOREDIFF:
NOTESDESIGNER0:Colin
#START
2,
,
2020,
2,
2020,
2,
2020,
2,
1010,
1,
1011,
1010,
1,
1010,
1,
1,
#GOGOSTART
3010,
1110,
1010,
1,
2020,
2220,
2020,
444
#GOGOEND
0,
#GOGOSTART
3010,
1110,
1010,
3030,
3010,
1110,
1010,
#GOGOEND
0,
2,
,
2,
,
2,
#BPMCHANGE 127
#SCROLL 0.984252
0,
#BPMCHANGE 125
#SCROLL 1
2,
,
2
#BPMCHANGE 111
#SCROLL 1.12613
00
#BPMCHANGE 122
#SCROLL 1.02459
0,
#BPMCHANGE 93
#SCROLL 1.34409
20
#BPMCHANGE 90
#SCROLL 1.38889
0
#BPMCHANGE 109
#SCROLL 1.14679
0,
#BPMCHANGE 94
#SCROLL 1.32979
2
#BPMCHANGE 103
#SCROLL 1.21359
0
#BPMCHANGE 69
#SCROLL 1.81159
2
#BPMCHANGE 73
#SCROLL 1.71233
0,
#MEASURE 3/4
#BPMCHANGE 72
#SCROLL 1.73611
2
#BPMCHANGE 107
#SCROLL 1.16822
0
#BPMCHANGE 99
#SCROLL 1.26263
0,
#END
COURSE:Normal
LEVEL:4
SCOREINIT:
SCOREDIFF:
NOTESDESIGNER1:Colin
#START
2020,
2220,
2020,
2220,
2020,
2,
2020,
2,
10001001,
1110,
10001011,
1010,
10001001,
1110,
1010,
1,
#GOGOSTART
3110,
10111000,
1110,
1010,
20202022,
2220,
2020,
444
#GOGOEND
0,
#GOGOSTART
30011011,
1110,
1010,
3030,
3110,
10111010,
1010,
#GOGOEND
0,
2,
,
2,
,
2,
#BPMCHANGE 127
#SCROLL 0.984252
0,
#BPMCHANGE 125
#SCROLL 1
2,
,
2
#BPMCHANGE 111
#SCROLL 1.12613
00
#BPMCHANGE 122
#SCROLL 1.02459
0,
#BPMCHANGE 93
#SCROLL 1.34409
20
#BPMCHANGE 90
#SCROLL 1.38889
0
#BPMCHANGE 109
#SCROLL 1.14679
0,
#BPMCHANGE 94
#SCROLL 1.32979
2
#BPMCHANGE 103
#SCROLL 1.21359
0
#BPMCHANGE 69
#SCROLL 1.81159
2
#BPMCHANGE 73
#SCROLL 1.71233
0,
#MEASURE 3/4
#BPMCHANGE 72
#SCROLL 1.73611
2
#BPMCHANGE 107
#SCROLL 1.16822
0
#BPMCHANGE 99
#SCROLL 1.26263
0,
#END
COURSE:Hard
LEVEL:4
SCOREINIT:
SCOREDIFF:
NOTESDESIGNER2:Colin
#START
10121022,
00001222,
2000101000202002,
00220001,
22210122,
0020201000001002,
0000200200002010,
,
10200120,
10200120,
11200120,
10200120,
11200120,
10200120,
11200120,
34444000,
#GOGOSTART
3010200110102000,
11201212,
1000220010102000,
10201120,
1010200200102020,
10201122,
10201122,
333
#GOGOEND
4,
#GOGOSTART
3010200110102000,
11201212,
1002002010010010,
10201120,
1010200200102020,
10201122,
10201122,
#GOGOEND
3330,
22202220,
22202220,
22202220,
22202001,
10121022,
#BPMCHANGE 127
#SCROLL 0.984252
00001222,
#BPMCHANGE 125
#SCROLL 1
200000100100000200200020,
00220000,
22
#BPMCHANGE 111
#SCROLL 1.12613
2101
#BPMCHANGE 122
#SCROLL 1.02459
01,
#BPMCHANGE 93
#SCROLL 1.34409
2221
#BPMCHANGE 90
#SCROLL 1.38889
00
#BPMCHANGE 109
#SCROLL 1.14679
10,
#BPMCHANGE 94
#SCROLL 1.32979
2000
#BPMCHANGE 103
#SCROLL 1.21359
2000
#BPMCHANGE 69
#SCROLL 1.81159
2020
#BPMCHANGE 73
#SCROLL 1.71233
2005,
#MEASURE 3/4
#BPMCHANGE 72
#SCROLL 1.73611
0
#BPMCHANGE 107
#SCROLL 1.16822
0
#BPMCHANGE 99
#SCROLL 1.26263
8,
#END
COURSE:Oni
LEVEL:7
SCOREINIT:
SCOREDIFF:
NOTESDESIGNER3:Colin
#START
10121022,
00001222,
2000101000202002,
00220001,
22210122,
0020201000001002,
0000200200002001,
,
1010202220102000,
1010202120102020,
1010202220102000,
1010202120102000,
1010202220102000,
1010202120102000,
1010201201104000,
34444000,
#GOGOSTART
3010210220102101,
1010210220102101,
1010210120112020,
1022210120102102,
1010201210102101,
1010210220102020,
1010210210102000,
401021012110
#GOGOEND
4000,
#GOGOSTART
3011210210102101,
1010210220102100,
1012011010122211,
2101201120112022,
1010210210102101,
1010210121102010,
44434444,
#GOGOEND
0,
20000002,
02222000,
2020,
20002001,
10121022,
#BPMCHANGE 127
#SCROLL 0.984252
00001222,
#BPMCHANGE 125
#SCROLL 1
200000100100000200200020,
00220000,
22
#BPMCHANGE 111
#SCROLL 1.12613
2101
#BPMCHANGE 122
#SCROLL 1.02459
01,
#BPMCHANGE 93
#SCROLL 1.34409
2221
#BPMCHANGE 90
#SCROLL 1.38889
00
#BPMCHANGE 109
#SCROLL 1.14679
10,
#BPMCHANGE 94
#SCROLL 1.32979
2000
#BPMCHANGE 103
#SCROLL 1.21359
2000
#BPMCHANGE 69
#SCROLL 1.81159
2020
#BPMCHANGE 73
#SCROLL 1.71233
2005,
#MEASURE 3/4
#BPMCHANGE 72
#SCROLL 1.73611
0
#BPMCHANGE 107
#SCROLL 1.16822
0
#BPMCHANGE 99
#SCROLL 1.26263
8,
#END