generated from DragonRatTiger/Custom-Charts
288 lines
4.4 KiB
Plaintext
288 lines
4.4 KiB
Plaintext
TITLE:Mousou Express
|
||
TITLEJA:もうそう♥えくすぷれす
|
||
SUBTITLE:--Nadeko Sengoku (CV:Kana Hanazawa) / Monogatari Series:Second Season
|
||
SUBTITLEJA:千石撫子 (CV:花澤香菜)「〈物語〉シリーズ セカンドシーズン」より
|
||
PREIMAGE:Mousou Express.jpg
|
||
BPM:101
|
||
WAVE:Mousou Express.ogg
|
||
OFFSET:-0.747
|
||
DEMOSTART:60.449
|
||
BGMOVIE:.mp4
|
||
MAKER:Colin
|
||
|
||
COURSE:Edit
|
||
LEVEL:9
|
||
BALLOON:
|
||
SCOREINIT:
|
||
SCOREDIFF:
|
||
NOTESDESIGNER4:Colin
|
||
|
||
#START
|
||
#SCROLL 2
|
||
10102000201010222222201010201010,
|
||
10002020101020222220102010101020,
|
||
10102000201010222222202010201010,
|
||
1022111202121000,
|
||
#GOGOSTART
|
||
10102010202210201011201120201010,
|
||
20112010201020112022101020221010,
|
||
22101011201120102020101020221011,
|
||
20201011201020102010101010002020,
|
||
#GOGOEND
|
||
10002010202010201011201020001022,
|
||
10102010201010201020101020112020,
|
||
10002010202010201020101120102020,
|
||
10112020102010201010201020101010,
|
||
1112101211121020,
|
||
10002010221020101010201020201000,
|
||
20201020101020101011201020101010,
|
||
2021011202111020,
|
||
10001111202011112020202211112010,
|
||
10101010202210101020112010102022,
|
||
10101010202210101020112010102022,
|
||
10102011201020101022101120201010,
|
||
20201011201020102020101120102022,
|
||
10102022101020101020101020201010,
|
||
10102022101020101020101020201010,
|
||
1021221202112011,
|
||
20201020002010201010202210201022,
|
||
#GOGOSTART
|
||
10102020101120112020102020002022,
|
||
10112020101020102111101020102222,
|
||
10102020101120112020102020002022,
|
||
10112010202210112010101020201010,
|
||
10102020101120112020102020002022,
|
||
10112020101020102111101020102222,
|
||
10102020101120112020102020002022,
|
||
10112010202210112211222210102010,
|
||
10102011202210102010201122222210,
|
||
10102022101020101011201020221011,
|
||
20101020101120102022101120102020,
|
||
101020102022101022221000
|
||
#GOGOEND
|
||
20202020,
|
||
#END
|
||
|
||
|
||
|
||
COURSE:Oni
|
||
LEVEL:6
|
||
BALLOON:
|
||
SCOREINIT:
|
||
SCOREDIFF:
|
||
NOTESDESIGNER3:Colin
|
||
|
||
|
||
#START
|
||
#SCROLL 2
|
||
1120212500821112,
|
||
1120211500812212,
|
||
1121212500812221,
|
||
1012120101112000,
|
||
#GOGOSTART
|
||
1011221122112211,
|
||
20201010201020100010201020221022,
|
||
1121212500811211,
|
||
10112020102010100010101020001000,
|
||
#GOGOEND
|
||
10002010001020102000102010002022,
|
||
1021220500008000,
|
||
1021020112121122,
|
||
1021220500802010,
|
||
20202010000010202020102010002022,
|
||
1012120500082000,
|
||
1021221202021012,
|
||
1021010500802000,
|
||
10001000202011112020101020102020,
|
||
5008212101212010,
|
||
5000008112012000,
|
||
2021020100211122,
|
||
1112010211212011,
|
||
5008508202121021,
|
||
1021221202021022,
|
||
1021020508101010,
|
||
1221012500000080,
|
||
#GOGOSTART
|
||
1022100112213031,
|
||
2012102111012121,
|
||
1022100122102020,
|
||
2032032032012210,
|
||
1022100112213031,
|
||
2012102111212121,
|
||
1022100122102020,
|
||
2032032032012210,
|
||
1021012111221022,
|
||
1211211211221021,
|
||
1021012210210122,
|
||
102101102000
|
||
#GOGOEND
|
||
2222,
|
||
#END
|
||
|
||
COURSE:Hard
|
||
LEVEL:6
|
||
BALLOON:10
|
||
SCOREINIT:
|
||
SCOREDIFF:
|
||
NOTESDESIGNER2:Colin
|
||
|
||
|
||
#START
|
||
1020111500811211,
|
||
1020112500812012,
|
||
1020111500811211,
|
||
1020110101111000,
|
||
#GOGOSTART
|
||
1120112010221020,
|
||
5000801021121020,
|
||
5000801210205008,
|
||
5000800101112010,
|
||
#GOGOEND
|
||
1021002010210020,
|
||
2021010500008000,
|
||
1021020102010111,
|
||
2021020101221120,
|
||
1112002111120010,
|
||
1021010500082210,
|
||
1021020102010222,
|
||
1021020500008000,
|
||
7000000000082020,
|
||
50000008,
|
||
50000008,
|
||
1021011200121020,
|
||
1112020500080000,
|
||
50000008,
|
||
50000008,
|
||
1021020508101010,
|
||
1111010500000080,
|
||
#GOGOSTART
|
||
1022100222223031,
|
||
2012102211012101,
|
||
1022100222223031,
|
||
2012012012012111,
|
||
1022100222223031,
|
||
2012102211012101,
|
||
1022100222223031,
|
||
2012012012012111,
|
||
1021012012221021,
|
||
1021012110112011,
|
||
1021012012111022,
|
||
101202102000
|
||
#GOGOEND
|
||
2222,
|
||
#END
|
||
|
||
COURSE:Normal
|
||
LEVEL:5
|
||
BALLOON:
|
||
SCOREINIT:
|
||
SCOREDIFF:
|
||
NOTESDESIGNER1:Colin
|
||
|
||
#START
|
||
#SCROLL 2
|
||
1020500000822220,
|
||
1020500000822220,
|
||
1020500000822220,
|
||
1020100100001000,
|
||
#GOGOSTART
|
||
1222,
|
||
50800022,
|
||
1112,
|
||
1000000202222000,
|
||
#GOGOEND
|
||
1011001010110010,
|
||
1011010500008000,
|
||
1011010101010111,
|
||
1011010500800000,
|
||
1012001020120010,
|
||
5008,
|
||
1001010101010011,
|
||
2021010500802000,
|
||
50008011,
|
||
50000008,
|
||
50000008,
|
||
1002010200202020,
|
||
50000800,
|
||
50000008,
|
||
50000008,
|
||
1021020100101010,
|
||
50000008,
|
||
#GOGOSTART
|
||
1011100222203030,
|
||
0020100222001010,
|
||
1011100222203030,
|
||
3003003003003000,
|
||
1011100222203030,
|
||
0020100222001010,
|
||
1011100222203030,
|
||
3003003003003000,
|
||
1001002010102020,
|
||
1001021020102010,
|
||
1001002010010010,
|
||
200200102000
|
||
#GOGOEND
|
||
2222,
|
||
#END
|
||
|
||
|
||
COURSE:Easy
|
||
LEVEL:3
|
||
BALLOON:
|
||
SCOREINIT:
|
||
SCOREDIFF:
|
||
NOTESDESIGNER0:Colin
|
||
|
||
#START
|
||
#SCROLL 2
|
||
10500008,
|
||
10500008,
|
||
10500008,
|
||
1000000200000000,
|
||
#GOGOSTART
|
||
1211,
|
||
20000011,
|
||
1211,
|
||
1,
|
||
#GOGOEND
|
||
22,
|
||
22,
|
||
22,
|
||
22,
|
||
22,
|
||
22,
|
||
22,
|
||
22,
|
||
3333,
|
||
50000008,
|
||
50000008,
|
||
5,
|
||
00000822,
|
||
50000008,
|
||
50000008,
|
||
2222,
|
||
50000008,
|
||
#GOGOSTART
|
||
10200033,
|
||
10200033,
|
||
10200033,
|
||
50000008,
|
||
10200033,
|
||
10205008,
|
||
10200033,
|
||
50000008,
|
||
1222,
|
||
1222,
|
||
1222,
|
||
100020002000
|
||
#GOGOEND
|
||
2222,
|
||
#END
|
||
|
||
|
||
|
||
|
||
|
||
|
||
|