generated from DragonRatTiger/Custom-Charts
371 lines
3.9 KiB
Plaintext
371 lines
3.9 KiB
Plaintext
TITLE:No Continue
|
|
SUBTITLE:--Akari Kitou / Battle Game in 5 Seconds
|
|
TITLEJA:No Continue
|
|
SUBTITLEJA:鬼頭明里 「出会って5秒でバトル」より
|
|
PREIMAGE:No Continue.jpg
|
|
BPM:135
|
|
WAVE:No Continue.ogg
|
|
OFFSET:-4.471
|
|
DEMOSTART:59.582
|
|
MAKER:Colin
|
|
|
|
COURSE:Oni
|
|
LEVEL:8
|
|
BALLOON:
|
|
SCOREINIT:
|
|
SCOREDIFF:
|
|
NOTESDESIGNER3:Colin
|
|
|
|
#START
|
|
1011211110112012,
|
|
1011211110112012,
|
|
1011211011112012,
|
|
1111
|
|
#SCROLL .7
|
|
20002000
|
|
#SCROLL 1
|
|
2
|
|
#SCROLL 1.1
|
|
1
|
|
#SCROLL 1.2
|
|
1
|
|
#SCROLL 1.3
|
|
1,
|
|
#SCROLL 1.4
|
|
#GOGOSTART
|
|
1021112111211122,
|
|
1021112111221120,
|
|
1021112010221122,
|
|
100000200100200000101010
|
|
#SCROLL 1.5
|
|
200000000
|
|
#SCROLL 1.5
|
|
200000000
|
|
#SCROLL 1.4
|
|
200100,
|
|
2012112210212122,
|
|
1021112110212120,
|
|
1021112011211120,
|
|
100000100100200200200200200200200200101010101010,
|
|
#GOGOEND
|
|
#SCROLL .7
|
|
2002002002002000,
|
|
#SCROLL 1
|
|
1211112210212122,
|
|
1021112010211121,
|
|
1021112010211120,
|
|
1021112010212222,
|
|
1021212010212120,
|
|
1021112011221120,
|
|
1021112210211120,
|
|
100000200100200200101010
|
|
#SCROLL 1.1
|
|
100000000
|
|
#SCROLL 1.2
|
|
1
|
|
#SCROLL 1
|
|
00000000200100,
|
|
10
|
|
#SCROLL .7
|
|
30
|
|
#SCROLL 1
|
|
30
|
|
#SCROLL 1.3
|
|
2110112122,
|
|
1021211120112211,
|
|
10
|
|
#SCROLL .7
|
|
30
|
|
#SCROLL 1
|
|
3
|
|
#SCROLL 1.3
|
|
01122112222,
|
|
#SCROLL 1.2
|
|
1021021021021111,
|
|
#SCROLL 1
|
|
200000100200000100200000101010101010200200200200,
|
|
#SCROLL 1.3
|
|
1021211120212111,
|
|
2111211122112210,
|
|
2012012012012222,
|
|
1012221120000000,
|
|
00000000000000000000000000000000000
|
|
#SCROLL 5
|
|
2000000000000,
|
|
#SCROLL 1.4
|
|
#GOGOSTART
|
|
1021112210212121,
|
|
1021012110212122,
|
|
1021112011221120,
|
|
1021112011221222,
|
|
1021012011212120,
|
|
1021112011201122,
|
|
1122112111202120,
|
|
1121212121202222,
|
|
#GOGOEND
|
|
#SCROLL 1.3
|
|
10012010
|
|
#SCROLL .7
|
|
4
|
|
#SCROLL 1.3
|
|
0002011,
|
|
20212010
|
|
#SCROLL .7
|
|
4
|
|
#SCROLL 1.3
|
|
0212111,
|
|
20012010
|
|
#SCROLL .7
|
|
4
|
|
#SCROLL 1.3
|
|
0012011,
|
|
2021201021112111,
|
|
#GOGOSTART
|
|
#SCROLL 1.4
|
|
2012021021112021,
|
|
1021202111212010,
|
|
#SCROLL 2
|
|
4
|
|
#SCROLL .9
|
|
00
|
|
#SCROLL .8
|
|
200
|
|
#SCROLL .7
|
|
200
|
|
#SCROLL .6
|
|
200
|
|
#SCROLL .5
|
|
200
|
|
#SCROLL .4
|
|
2,
|
|
00
|
|
#SCROLL .3
|
|
200
|
|
#SCROLL .2
|
|
20000000000,
|
|
#END
|
|
|
|
|
|
COURSE:Hard
|
|
LEVEL:7
|
|
BALLOON:
|
|
SCOREINIT:
|
|
SCOREDIFF:
|
|
NOTESDESIGNER2:Colin
|
|
|
|
#START
|
|
1020201110202011,
|
|
1020201110202011,
|
|
1020201110202011,
|
|
12202020,
|
|
#GOGOSTART
|
|
#SCROLL 1.1
|
|
1020101110102000,
|
|
1020101110102000,
|
|
1020101110102000,
|
|
1020101030030030,
|
|
1020201110201000,
|
|
1020201110201000,
|
|
1020201110201000,
|
|
12222222,
|
|
#GOGOEND
|
|
#SCROLL .5
|
|
2002002002002000,
|
|
#SCROLL 1
|
|
0010202010020020,
|
|
1002005000008000,
|
|
0020102010010020,
|
|
1002002000202020,
|
|
0020202010020010,
|
|
2001002000102020,
|
|
5,
|
|
0000008030030030,
|
|
0030300010020010,
|
|
0011101010010010,
|
|
0030300010102011,
|
|
1002002002002220,
|
|
2001001020102020,
|
|
1011101011010002,
|
|
2022220100500810,
|
|
50000082,
|
|
1011010100000000,
|
|
00000000000000000000000000000000000
|
|
#SCROLL 2
|
|
2000000000000,
|
|
#SCROLL 1.1
|
|
#GOGOSTART
|
|
1022011022022220,
|
|
1011020500008010,
|
|
2022020200102020,
|
|
1022020100102020,
|
|
2022011022002020,
|
|
1011020500000000,
|
|
0082,
|
|
20211111,
|
|
#GOGOEND
|
|
40014012,
|
|
40014111,
|
|
40214041,
|
|
4000101020111010,
|
|
1022011020102020,
|
|
1001011010105008,
|
|
#SCROLL 2
|
|
4
|
|
#SCROLL .9
|
|
00
|
|
#SCROLL .8
|
|
200
|
|
#SCROLL .7
|
|
200
|
|
#SCROLL .6
|
|
200
|
|
#SCROLL .5
|
|
200
|
|
#SCROLL .4
|
|
2,
|
|
00
|
|
#SCROLL .3
|
|
200
|
|
#SCROLL .2
|
|
20000000000,
|
|
#END
|
|
|
|
|
|
COURSE:Normal
|
|
LEVEL:5
|
|
BALLOON:
|
|
SCOREINIT:
|
|
SCOREDIFF:
|
|
NOTESDESIGNER1:Colin
|
|
|
|
|
|
#START
|
|
#BARLINEOFF
|
|
0,
|
|
0,
|
|
0,
|
|
00
|
|
#BARLINEON
|
|
22,
|
|
#GOGOSTART
|
|
1111,
|
|
1111,
|
|
1111,
|
|
1000100030030030,
|
|
1111,
|
|
1111,
|
|
1111,
|
|
1000100010010010,
|
|
#GOGOEND
|
|
1,
|
|
2222,
|
|
2222,
|
|
2222,
|
|
2222,
|
|
2222,
|
|
2222,
|
|
2222,
|
|
2000200030030030,
|
|
03305000,
|
|
0,
|
|
83305000,
|
|
0,
|
|
00008220,
|
|
22,
|
|
12,
|
|
11,
|
|
1,
|
|
00000000000000000000000000000000000
|
|
#SCROLL 1.5
|
|
2000000000000,
|
|
#GOGOSTART
|
|
#SCROLL 1
|
|
3003003003060000,
|
|
00000802,
|
|
2222,
|
|
2222,
|
|
1001001001000000,
|
|
1001010100001000,
|
|
5,
|
|
0800,
|
|
#GOGOEND
|
|
1,
|
|
1,
|
|
1,
|
|
1,
|
|
1111,
|
|
1111,
|
|
2002002002002002,
|
|
0020020000000000,
|
|
#END
|
|
|
|
COURSE:Easy
|
|
LEVEL:3
|
|
BALLOON:
|
|
SCOREINIT:
|
|
SCOREDIFF:
|
|
NOTESDESIGNER0:Colin
|
|
|
|
|
|
#START
|
|
#BARLINEOFF
|
|
0,
|
|
0,
|
|
0,
|
|
00
|
|
#BARLINEON
|
|
22,
|
|
#GOGOSTART
|
|
1001,
|
|
1,
|
|
1001,
|
|
13,
|
|
11,
|
|
11,
|
|
11,
|
|
#GOGOEND
|
|
1,
|
|
1,
|
|
2,
|
|
2,
|
|
2,
|
|
2,
|
|
2,
|
|
2,
|
|
2,
|
|
2,
|
|
03305000,
|
|
0,
|
|
83305000,
|
|
0,
|
|
08,
|
|
22,
|
|
12,
|
|
5008,
|
|
1,
|
|
00000000000000000000000000000000000
|
|
#SCROLL 1.3
|
|
2000000000000,
|
|
#SCROLL 1
|
|
#GOGOSTART
|
|
3000003000060000,
|
|
00000800,
|
|
22,
|
|
2022,
|
|
1000001001000000,
|
|
1000000100001000,
|
|
5,
|
|
0800,
|
|
#GOGOEND
|
|
1,
|
|
1,
|
|
1,
|
|
1,
|
|
11,
|
|
11,
|
|
20020020,
|
|
0020020000000000,
|
|
#END
|
|
|
|
|