Files
2025-12-20 15:50:25 -05:00

756 lines
6.2 KiB
Plaintext

TITLE:One Thing
SUBTITLE:--Jeff Williams feat. Casey Lee Williams / RWBY
BPM:180
WAVE:One Thing.ogg
OFFSET:-7.891
DEMOSTART:189.391
MAKER:Colin
COURSE:Oni
LEVEL:8
BALLOON:
SCOREINIT:
SCOREDIFF:
NOTESDESIGNER3:Colin
#START
1000102010102210,
11121121,
1000102010102210,
11121121,
2000101020102210,
11121122,
1000102010102210,
11211121,
20221112,
1010102010221120,
10121121,
1022221000000000,
10121112,
11121121,
10121112,
11121121,
2000102011101020,
1010102010111120,
10121121,
1022222222111111,
20121112,
11121121,
20121112,
11122121,
20121112,
1010102010111120,
10121112,
1022222010101020,
1000102012101020,
11121112,
1010102012101020,
1010102011201020,
1000102012101020,
1010102010112210,
1000102012101020,
1000102010222222,
10121112,
11221121,
10121112,
1010222010102222,
10121112,
1010102010111120,
10121121,
2022112010102010,
#GOGOSTART
10121112,
11121112,
30323132,
11121121,
20121112,
1010102010111120,
10121112,
1011112010101020,
10121112,
11121112,
30323132,
11121121,
20121112,
1010102010111120,
10121112,
1011112010101020,
10121112,
11121112,
10121112,
10121112,
10121112,
1010102010222210,
#GOGOEND
1,
10121112,
11121112,
1000102010101022,
1010102110102010,
20121112,
1010102010111120,
10121112,
1022221111111111,
20121112,
11121121,
10121112,
11121112,
10121112,
1010102010111120,
10121112,
1022222000101020,
1000102012101020,
11121112,
10121112,
12111212,
10121112,
1010102010111120,
10121112,
10002222221
#SCROLL .0000000000001
#BARLINEOFF
00000,
0,
0,
0,
0,
0
#SCROLL 1
#BARLINEON
1012111,
2010101020101111,
21012111,
2010202220101010,
2
#GOGOSTART
1012111,
21112111,
23032313,
21112112,
12012111,
2010101020101111,
21012111,
2010111120101010,
21012111,
21112111,
23032313,
21112112,
12012111,
2010101020101111,
21012111,
2010111120101010,
21012111,
21112111,
2
#GOGOEND
1012211,
21112121,
21102121,
2010201020102011,
2010101020101111,
2010101020101111,
2222102211112010,
2111222222222222,
2210001020101010,
21112121,
12012111,
2010101020102011,
21022111,
1020001120101010,
21012112,
21012111,
12012111,
12111221,
22000000,
0
#GOGOSTART
1012111,
21112111,
23032313,
21112112,
12012111,
2010101020101111,
21012111,
2010111120101010,
21012111,
21112111,
23032313,
21112112,
12012111,
2010101020101111,
21012111,
2010111120101010,
21012111,
21112111,
21012111,
21012111,
21012111,
2010101020102222,
1
#GOGOEND
2000000,
#END
COURSE:Hard
LEVEL:7
BALLOON:
SCOREINIT:
SCOREDIFF:
NOTESDESIGNER2:Colin
#START
10121100,
10121100,
10121100,
10121100,
20112100,
10121100,
10121100,
10211100,
20221012,
10121010,
10121021,
10010000,
10121012,
10121021,
10121012,
10121021,
2000102011101020,
10121012,
10121021,
50000008,
20121012,
10121021,
20121012,
10122021,
20121012,
10121012,
10121012,
12220000,
10121012,
10121012,
10121102,
10121202,
10121012,
10121101,
10101102,
10121022,
10121012,
10221021,
10121012,
10101110,
10121012,
10121012,
10121021,
2,
#GOGOSTART
10121012,
10121000,
3333,
6008,
10121012,
10121010,
10121012,
10101012,
10121012,
10121010,
3333,
60000800,
20121012,
10121102,
10121012,
10121012,
10121012,
10121012,
10121012,
10121012,
10121012,
10121221,
#GOGOEND
1,
10121012,
10121012,
10121010,
10120121,
20121012,
10121012,
10121012,
50000008,
20121012,
10121021,
10121012,
10121012,
10121012,
10121112,
10121012,
12020102,
10120112,
10121012,
10121012,
10110212,
10121012,
10121112,
10121012,
100001
#SCROLL .0000000000001
#BARLINEOFF
00,
0,
0,
0,
0,
0
#SCROLL 1
#BARLINEON
1012101,
21012111,
21012101,
21202000,
0
#GOGOSTART
1012101,
21012101,
03030303,
06000080,
01012101,
21012110,
21012101,
21012101,
21012101,
21012101,
03030303,
06000080,
01012101,
21012110,
21012101,
21012101,
21012101,
21012101,
2
#GOGOEND
1012010,
21012021,
01102120,
21202120,
21012101,
21012101,
10121011,
21101010,
12012101,
21012121,
02012101,
21012120,
21022101,
12012101,
21012012,
21012011,
12012010,
12011021,
22000000,
01012101,
21012101,
03030303,
06000080,
01012101,
21012101,
21012101,
21012101,
21012101,
21012101,
03030303,
06000080,
0
#GOGOSTART
1012101,
21012110,
21012101,
21012101,
21012101,
21012101,
21012101,
21012101,
21012101,
21012100,
2
#GOGOEND
2000000,
#END
COURSE:Normal
LEVEL:2
BALLOON:
SCOREINIT:
SCOREDIFF:
NOTESDESIGNER1:Colin
#START
1012,
1,
1012,
1,
1012,
1,
1012,
1,
1012,
1,
1012,
1,
2,
2,
2,
2,
2,
0,
1,
1,
1,
1,
1,
1,
1,
1,
1,
0,
11,
1,
11,
1,
22,
2,
22,
2,
11,
1,
11,
1,
11,
11,
11,
1,
#GOGOSTART
6,
00080000,
3333,
60000800,
32,
32,
3230,
68,
6,
0800,
3232,
3,
21,
2,
11,
1110,
11,
11,
5,
0008,
5,
0,
#GOGOEND
8,
1,
1,
2,
1,
5,
0,
0,
8,
1012,
1,
1012,
1,
22,
2,
1,
1,
11,
1,
11,
1,
11,
2,
5,
000008
#SCROLL .0000000000001
#BARLINEOFF
00,
0,
0,
0,
0,
0
#SCROLL 1
#BARLINEON
3000300,
03000300,
01000100,
01000000,
0
#GOGOSTART
6000000,
08,
03030303,
06000080,
03000200,
03000200,
03020300,
06000800,
06000000,
00080000,
03020302,
03000000,
02000100,
02000000,
01000100,
01010100,
01000100,
01000100,
0
#GOGOEND
1000000,
0,
01000100,
1,
02020202,
02020202,
01000101,
05000080,
01000002,
02000100,
01010500,
00000800,
01000000,
01000000,
05000000,
0,
0,
0,
08000000,
0
#GOGOSTART
6000000,
08,
03030303,
06000080,
03000200,
03000200,
03020300,
06000800,
06000000,
00080000,
03020302,
03000000,
02000100,
02000000,
01000100,
01010100,
01000100,
01000100,
05000000,
00000008,
05000000,
0,
0
#GOGOEND
8000000,
#END
COURSE:Easy
LEVEL:3
BALLOON:
SCOREINIT:
SCOREDIFF:
NOTESDESIGNER0:Colin
#START
1,
1,
1,
1,
1,
1,
1,
1,
1,
1,
1,
1,
2,
2,
2,
2,
2,
0,
1,
1,
1,
1,
1,
1,
1,
1,
1,
0,
1,
1,
1,
1,
2,
2,
2,
2,
1,
1,
1,
1,
1,
1,
11,
1,
#GOGOSTART
6,
00080000,
3333,
60000800,
3,
3,
33,
68,
6,
0800,
33,
3,
2,
2,
1,
1,
11,
11,
5,
0008,
5,
0,
#GOGOEND
8,
1,
0,
2,
1,
5,
0,
0,
8,
11,
1,
11,
1,
22,
2,
1,
1,
1,
1,
1,
1,
1,
2,
5,
000008
#SCROLL .0000000000001
#BARLINEOFF
00,
0,
0,
0,
0,
0
#SCROLL 1
#BARLINEON
3000300,
03000300,
01000100,
01000000,
0
#GOGOSTART
6000000,
08,
03030303,
06000080,
03000000,
03000000,
03000300,
06000800,
06000000,
00080000,
03000300,
03000000,
02000100,
02000000,
01000100,
01000100,
01000100,
01000100,
0
#GOGOEND
1000000,
0,
01000100,
1,
02000200,
02000200,
01000100,
05000080,
01000000,
00000100,
00010500,
00000800,
01000000,
01000000,
05000000,
0,
0,
0,
08000000,
0
#GOGOSTART
6000000,
08,
03030303,
06000080,
03000000,
03000000,
03000300,
06000800,
06000000,
00080000,
03000300,
03000000,
02000100,
02000000,
01000100,
01000100,
01000100,
01000100,
05000000,
00000008,
05000000,
0,
0
#GOGOEND
8000000,
#END