Files
2025-06-11 19:53:16 -04:00

335 lines
3.3 KiB
Plaintext

TITLE:PAPERMOON
SUBTITLE:--Tommy heavenly6 / Soul Eater
TITLEJA:PAPERMOON
SUBTITLEJA:Tommy heavenly6 「ソウルイーター」より
PREIMAGE:PAPERMOON.png
BGMOVIE:PAPERMOON.mp4
WAVE:PAPERMOON.ogg
BPM:164
OFFSET:-0.141
DEMOSTART:49.897
MAKER:Colin
COURSE:Easy
LEVEL:2
BALLOON:4
SCOREINIT:
SCOREDIFF:
NOTESDESIGNER0:Colin
#START
2220,
2020708
#GOGOSTART
3,
0010,
10000003,
0010,
10000003,
0010,
10000003,
0010,
1000000
#GOGOEND
2,
,
2020,
2,
2020,
5,
0800,
1010,
1,
1,
1010,
1,
2020,
5,
8,
2020,
1010,
40000002,
00020002,
00000202,
00000003,
,
00000003,
00000303,
0030,
#GOGOSTART
40040404,
00040404,
00000001,
00010001,
00000001,
0010,
10000004,
00040040,
30000001,
01010001,
00000205,
00080003,
00000403,
,
30003003,
,
#GOGOEND
2022,
20002004,
0220,
4000400
#GOGOSTART
6,
0008,
00001001,
,
10001001,
,
1000003
#GOGOEND
3,
,
#END
COURSE:Normal
LEVEL:3
BALLOON:4
SCOREINIT:
SCOREDIFF:
NOTESDESIGNER1:Colin
#START
2220,
2020708
#GOGOSTART
3,
0110,
10001003,
00111010,
10001003,
0011,
10001003,
0010,
1000020
#GOGOEND
2,
0020,
2222,
2020,
2022,
5,
0800,
10110010,
1,
1020,
1210,
1020,
2222,
5,
8,
2022,
10001022,
40000202,
02020202,
00000202,
00000103,
00000101,
00000103,
00000303,
0030,
#GOGOSTART
40040404,
04040404,
00101001,
01110101,
00000101,
01011101,
10202024,
00040040,
30111001,
01010101,
00022205,
00081003,
00101403,
00101001,
30103203,
00202022,
#GOGOEND
2222,
20002004,
00222020,
4000400
#GOGOSTART
6,
0008,
11101001,
0110,
10111001,
0110,
1010103
#GOGOEND
3,
,
#END
COURSE:Hard
LEVEL:4
BALLOON:16
SCOREINIT:
SCOREDIFF:
NOTESDESIGNER2:Colin
#START
4444,
4040600
#GOGOSTART
8,
01202010,
20002007,
00000008,
20002001,
01102010,
20002021,
01202020,
1021020
#GOGOEND
1,
0010,
1112,
2010,
2211,
10000101,
00000222,
20110020,
20000102,
00220000,
1122,
10012000,
1112,
5,
00800101,
00110101,
00210022,
10201121,
01010101,
10201121,
01201105,
00008112,
00000205,
00008202,
00011000,
#GOGOSTART
40330404,
03030403,
30201021,
0010201022202000,
10201121,
01210121,
00201203,
00040030,
30220201,
02020222,
10201121,
01201020,
10201121,
01210121,
0010010001000500,
0080,
#GOGOEND
20220202,
00220201,
00000011,
1000100
#GOGOSTART
3,
01201022,
10201121,
01201020,
1000000022202010,
01201022,
1020104
#GOGOEND
4,
,
#END
COURSE:Oni
LEVEL:7
SCOREINIT:
SCOREDIFF:
NOTESDESIGNER3:Colin
#START
21212121,
20102011222222
#GOGOSTART
10,
0010201110102010,
1000201110202030,
0010201110102010,
2000201022102030,
0010201110102010,
20212223,
0010201110002010,
20102011222210
#GOGOEND
20,
0010201110102010,
0010201120102210,
21211101,
2010201020112020,
1000200010102011,
11210212,
1000201110102010,
1010201110201022,
1010201000102011,
2010201020102011,
1010201020102011,
1010201110201020,
1010201110102010,
11211212,
1000201011101010,
1010201122221022,
11212112,
01211121,
12112122,
0010201022102020,
1000201110102010,
0010201110102010,
1000202210102010,
0010201122221111,
#GOGOSTART
2010201110102030,
0010201110102010,
1000202210102010,
0010201122202011,
1000201110102010,
0010201110102010,
10201123,
0010201122221111,
21211123,
0010201110102010,
10201121,
0010201122221111,
2010201120102030,
0010201110102010,
10201121,
0010201122221010,
#GOGOEND
21212121,
21212221,
0010201120102010,
20102010222211
#GOGOSTART
20,
0010201110102010,
1000201110202030,
0010201110102010,
2000201022102030,
0010201110102010,
30002011222222
#GOGOEND
10,
0000000221000000,
#END