Files
2025-06-11 19:53:16 -04:00

355 lines
3.0 KiB
Plaintext

TITLE:Refrain Boy
SUBTITLE:--ALL OUT / Mob Psycho 100
BPM:190
WAVE:Refrain Boy.ogg
OFFSET:-1.252
DEMOSTART:55.094
MAKER:Colin
SONGVOL:35
SEVOL:36
COURSE:Oni
LEVEL:9
SCOREINIT:
SCOREDIFF:
NOTESDESIGNER3:Colin
#START
3,
3,
3,
3000000022112222,
1111211121112111,
2000000022221111,
4000000022112222,
3358,
#GOGOSTART
1010201210112012,
1011201210112012,
1011201210112012,
1011201211112222,
1010201210112012,
1011201122111111,
2010201210102012,
1022201120112222,
#GOGOEND
1111,
10101210,
1111,
10101212,
1111,
10101212,
11121211,
2010002000200022,
11201112,
11211212,
1010201010101120,
1010201211202020,
11212122,
1010200011221020,
11212121,
2010201021112010,
33583358,
3030101120222211,
2111202010102000,
1211102010202000,
33583358,
3030201120212222,
1111102010102010,
1111102010112000,
1111211121112111,
21111112,
02225810,
#GOGOSTART
1010201212102020,
1010202210102120,
1010200010102012,
1010201210102010,
1010201210102012,
1010201210102012,
1010201210102022,
1111222211112000,
1010201212102010,
1010201210102022,
1010201210102010,
1010201210102010,
21212121,
21212121,
21212121,
2111211121112111,
#GOGOEND
44400000,
#GOGOSTART
1010201212102012,
1011201210112012,
1011201210112012,
1011201022222220,
1010201210102012,
1010201122111111,
2010201210102010,
211111211111
#GOGOEND
2000,
3000000022221222,
3300,
#END
COURSE:Hard
LEVEL:7
SCOREINIT:
SCOREDIFF:
NOTESDESIGNER2:Colin
#START
3,
3,
3,
3000000022202220,
11202121,
20002211,
40002122,
3358,
#GOGOSTART
11210121,
10211021,
10211021,
10211122,
10211021,
10212011,
20211021,
10212022,
#GOGOEND
1111,
1111,
1111,
1111,
1111,
1111,
11120211,
20020202,
10201102,
10211012,
10211012,
1222,
11210120,
10201210,
11202120,
21202120,
33583358,
33112021,
20220120,
11120220,
33583358,
33212210,
11120121,
10121120,
10212021,
20101112,
02225810,
#GOGOSTART
11210120,
11210120,
11201121,
01210121,
10211021,
10211021,
10211022,
1110222011102000,
11210121,
01211022,
10211021,
10211021,
20212021,
20212021,
20212021,
21212121,
#GOGOEND
44400000,
#GOGOSTART
11210121,
10211021,
10211021,
1010201022202220,
10211021,
10212111,
21210121,
211211
#GOGOEND
20,
30002210,
3300,
#END
COURSE:Normal
LEVEL:5
SCOREINIT:
SCOREDIFF:
NOTESDESIGNER1:Colin
#START
3,
3,
3,
3,
1110,
1111,
5,
0080,
#GOGOSTART
1120,
1120,
1120,
1120,
1220,
1220,
1220,
1222,
#GOGOEND
1,
1,
1,
1,
1,
1,
1,
2222,
1110,
1110,
1110,
1110,
1110,
1110,
1110,
1111,
1010,
1010,
5,
0080,
1010,
1010,
5008,
5080,
5,
,
0080,
#GOGOSTART
1120,
1110,
1120,
1110,
1120,
1120,
5,
0800,
1120,
1110,
1120,
1110,
1120,
1120,
1120,
5,
#GOGOEND
0080,
#GOGOSTART
1120,
1120,
1120,
1120,
1220,
1220,
1220,
122
#GOGOEND
2,
5,
0080,
#END
COURSE:Easy
LEVEL:4
SCOREINIT:
SCOREDIFF:
NOTESDESIGNER0:Colin
#START
3,
3,
3,
3,
1010,
1010,
5,
0080,
#GOGOSTART
1020,
1020,
1020,
1020,
1020,
1020,
1020,
1202,
#GOGOEND
1,
,
1,
,
1,
,
1,
2020,
1010,
1010,
1010,
1010,
1010,
1010,
1010,
1010,
1010,
1010,
5,
0080,
1010,
1010,
5008,
5080,
5,
,
0080,
#GOGOSTART
1020,
1,
1020,
1,
1020,
1010,
5,
0800,
1020,
1,
1020,
1,
1020,
1,
1020,
5,
#GOGOEND
0080,
#GOGOSTART
1020,
1,
1020,
1020,
2020,
1020,
1020,
100
#GOGOEND
2,
5,
0080,
#END