Files
2025-06-11 19:53:16 -04:00

349 lines
2.9 KiB
Plaintext

TITLE:SPARK-AGAIN
SUBTITLE:--Aimer / Fire Force
BPM:180
WAVE:SPARK-AGAIN.ogg
OFFSET:-0.337
DEMOSTART:54.503
MAKER:Colin
COURSE:Oni
LEVEL:7
BALLOON:
SCOREINIT:
SCOREDIFF:
NOTESDESIGNER3:Colin
#START
02121210,
#GOGOSTART
10121012,
1000102010121020,
10121112,
12121021,
20121012,
10120112,
2000102012101020,
1000100020102011,
#GOGOEND
1110100010001000,
10100012,
1101,
10000012,
01100010,
10000012,
10121112,
1000002010112120,
1110102010001020,
10121112,
11121112,
10120112,
1210102010102010,
10120121,
2000102012101020,
1000102011201020,
11111211,
10111211,
11011211,
10111211,
11111212,
1000101010201110,
11111211,
10111212,
01011211,
11111211,
11111201,
11111201,
11221221,
0000122011221220,
20221221,
2010202011201000,
#GOGOSTART
10121212,
10120112,
10120112,
1000102012101020,
2210102010001020,
1000102010111020,
1000102011201020,
1000002010221120,
10021212,
10120112,
10120112,
1000102012101020,
20121012,
1000102010111020,
10121102,
1000002010221120,
#GOGOEND
11121211,
10111211,
11111201,
1000101011201010,
11111221,
1110000000221120,
#GOGOSTART
1000102012101010,
1111,
1,
#GOGOEND
#END
COURSE:Hard
LEVEL:5
BALLOON:
SCOREINIT:
SCOREDIFF:
NOTESDESIGNER2:Colin
#START
#BARLINEOFF
,
#BARLINEON
#GOGOSTART
10120010,
10120010,
10120102,
10120020,
20120010,
10120102,
20120202,
1122,
#GOGOEND
11101010,
10101012,
1101,
10000012,
01100010,
1001,
10121010,
10021021,
01021012,
1111,
10121012,
10120102,
02021020,
10120120,
20120202,
10120212,
05000000,
00000801,
05000000,
00810201,
05000000,
00810202,
01010201,
10110202,
05000000,
00810210,
01010201,
10101201,
01220201,
0111,
20221021,
20221010,
#GOGOSTART
10020202,
10120102,
10120102,
10121010,
20121012,
10121012,
10021002,
10021202,
10021012,
10120102,
10120102,
10121010,
20121010,
10101012,
10121102,
10021202,
#GOGOEND
05000000,
00000008,
05000000,
0008,
05000000,
81000000,
#GOGOSTART
10121011,
1111,
#GOGOEND
1,
#END
COURSE:Normal
LEVEL:3
BALLOON:20
SCOREINIT:
SCOREDIFF:
NOTESDESIGNER1:Colin
#START
#BARLINEOFF
,
#BARLINEON
#GOGOSTART
1110,
1110,
1110,
1110,
1110,
1110,
1110,
1110,
#GOGOEND
2,
2,
2,
2,
2,
2,
5,
00000008,
1,
1,
1,
1,
1,
1,
50000008,
10000100,
01000000,
10000001,
01000000,
20000001,
01000000,
20000005,
0,
00800101,
01011010,
10010000,
01001010,
10110001,
15000000,
0,
0,
00008100,
#GOGOSTART
10020000,
10020000,
1,
1,
5,
00000008,
5,
00008100,
2,
10020000,
10000100,
02010000,
5,
00000008,
10000100,
01000100,
#GOGOEND
01000000,
01000000,
01000000,
01000000,
1,
1,
#GOGOSTART
7,
0,
8,
#GOGOEND
#END
COURSE:Easy
LEVEL:1
BALLOON:10
SCOREINIT:
SCOREDIFF:
NOTESDESIGNER0:Colin
#START
#BARLINEOFF
,
#BARLINEON
#GOGOSTART
1,
1,
1,
1,
1,
1,
1,
1,
#GOGOEND
2,
0,
2,
0,
2,
0,
5,
00000008,
0,
1,
0,
1,
0,
1,
50000008,
1,
01000000,
1,
01000000,
0,
01000000,
20000005,
0,
00800100,
01001000,
10010000,
01000010,
00010001,
05000000,
0,
0,
08,
#GOGOSTART
1,
1,
1,
1,
5,
00000008,
5,
08,
2,
00020000,
1,
02000000,
5,
00000008,
1,
01000000,
#GOGOEND
01000000,
0,
01000000,
0,
01000000,
01000000,
#GOGOSTART
7,
0,
#GOGOEND
8,
#END