Files
2025-06-11 19:53:16 -04:00

303 lines
3.0 KiB
Plaintext

TITLE:Saturday Night Question
SUBTITLE:--Megumi Nakajima / Recovery of an MMO Junkie
TITLEJA:サタデー・ナイト・クエスチョン
SUBTITLEJA:中島愛 「ネト充のススメ」より
PREIMAGE:Saturday Night Question.png
BGMOVIE:Saturday Night Question.mp4
WAVE:Saturday Night Question.ogg
BPM:155
OFFSET:-3.167
DEMOSTART:52.521
MAKER:Colin
COURSE:Easy
LEVEL:3
SCOREINIT:
SCOREDIFF:
NOTESDESIGNER0:Colin
#START
3030,
3,
4040,
4,
1010,
1110,
2020,
2220,
1010,
1,
2020,
2,
1010,
1,
2020,
2,
1011,
1010,
2020,
2220,
1010,
1110,
5080,
,
3010,
1,
2020,
2,
1010,
1,
4040,
4,
6,
8,
6,
8010,
1,
2020,
2,
1110,
6,
8,
6,
8010,
1,
2020,
2,
1110,
1010,
1,
2020,
44000000,
3030,
3,
4040,
4,
#END
COURSE:Normal
LEVEL:3
SCOREINIT:
SCOREDIFF:
NOTESDESIGNER1:Colin
#START
3030,
3110,
4040,
4220,
10001001,
1110,
20002002,
2220,
1010,
1,
2022,
2020,
1011,
1010,
20002022,
2020,
10001011,
1110,
2020,
20222020,
1010,
10101001,
5080,
,
30011000,
1110,
20022000,
2220,
10001011,
1110,
4040,
4,
6,
8110,
6,
80111010,
1010,
20222020,
2020,
10111010,
6,
8110,
6,
80111010,
1010,
20002022,
2220,
1110,
1011,
1010,
20002022,
44000000,
3030,
3,
4040,
4,
#END
COURSE:Hard
LEVEL:4
SCOREINIT:
SCOREDIFF:
NOTESDESIGNER2:Colin
#START
1110000022200000,
12101210,
1110000022200000,
12101210,
3000200110102000,
10201122,
1000200110102000,
10201122,
10202022,
01101022,
01102022,
01111112,
00202022,
01101025,
0080,
0000000020222020,
1000200110002000,
1000200110102000,
1000200110002000,
1000200110102000,
1000200110002000,
1000200110102020,
1010200110102000,
1010200020222020,
5,
0080,
5,
0080,
10201121,
01210113,
03304040,
33330000,
30201121,
01201120,
10201121,
01201125,
00008005,
0080,
10210201,
20212122,
30201121,
01201120,
10201121,
01220125,
00008225,
0080,
10210201,
21012122,
10210120,
12012020,
10210101,
33000000,
1110000022200000,
12101210,
1110000022200000,
12111200,
#END
COURSE:Oni
LEVEL:7
SCOREINIT:
SCOREDIFF:
NOTESDESIGNER3:Colin
#START
#GOGOSTART
2120201021202010,
22112211,
2120201021202010,
2020101012102222,
1210201110102020,
1210211010102020,
1210201110102020,
1210201122112222,
#GOGOEND
12222122,
01112222,
01111212,
02212222,
02121122,
01112225,
0082,
1000200022221111,
1010200210102020,
1010201211102020,
1010200210102010,
1010201210102020,
1010201210102050,
8010201210102050,
0008,
1010201110222022,
1000201210102020,
1000201110102000,
1000201210102020,
1000201110102010,
1000201110102010,
1000201110102030,
03304030,
44440444,
#GOGOSTART
3010201210102011,
11211120,
1000200010102011,
1010201010222022,
1010200010102011,
1010201210102020,
10211121,
401040104022222
#GOGOEND
2,
#GOGOSTART
1010201210102011,
11211120,
1010201110102011,
1022221022221022,
1010201210102010,
1010201111102020,
1010201110102010,
101020121010202
#GOGOEND
0,
#GOGOSTART
4011
#GOGOEND
10
#GOGOSTART
4011
#GOGOEND
10
#GOGOSTART
4011,
#GOGOEND
10
#GOGOSTART
4011
#GOGOEND
10
#GOGOSTART
401040
#GOGOEND
10,
#GOGOSTART
4011201122112222,
1
#GOGOEND
3000000,
#GOGOSTART
2120201021202010,
22112211,
2120201021202010,
2020101021
#GOGOEND
200000,
#END