Files
2025-06-11 19:53:16 -04:00

344 lines
2.8 KiB
Plaintext

TITLE:Seishun Complex
SUBTITLE:--Kessoku Band / Bocchi the Rock!
BPM:190
OFFSET:-0.533
DEMOSTART:39.688
WAVE:Seishun Complex.ogg
MAKER:Colin
COURSE:Oni
LEVEL:8
BALLOON:
SCOREINIT:
SCOREDIFF:
NOTESDESIGNER3:Colin
#START
30030030,
00000000000101020000000000000000,
10220120,
10201120,
10220120,
1000201110102010,
10220120,
10201120,
10220120,
1000201110122010,
10220120,
10201120,
10220120,
1000201110102000,
10220120,
10201120,
10220120,
11212110,
1022102000102010,
12111212,
1111201000102010,
0020102010221120,
10220121,
10211120,
11210121,
1010201020102022,
11211211,
11211122,
11212122,
1010201011221122,
1111,
#GOGOSTART
10201120,
10221120,
11211120,
1010201011102020,
10201120,
1000202012102000,
10221120,
1010201011112222,
10201122,
11221120,
11211122,
1010201011102020,
10201120,
1010201012102010,
10211120,
1010201011201122,
10201122,
11221120,
11211122,
1010201011102020,
10201120,
1010201012102010,
10211120,
1010201011112222,
10201122,
11221120,
11211122,
1010201011102020,
10201120,
1010201012102010,
21212121,
2010201011201122,
#GOGOEND
11211122,
1011201020102020,
1011221111112222,
1111222211221020,
10210120,
1010200011222010,
44144144,
#END
COURSE:Hard
LEVEL:5
BALLOON:
SCOREINIT:
SCOREDIFF:
NOTESDESIGNER2:Colin
#START
30030030,
,
10220120,
10201120,
10220120,
1000201110102000,
10220120,
10201120,
10220120,
1000201110102000,
10220120,
10201120,
10220120,
10210120,
10220120,
1212,
10220120,
10212010,
10120121,
02101212,
10210121,
02120212,
10220121,
10210120,
10210120,
11202120,
11210210,
11201120,
11202120,
11205000,
8111,
#GOGOSTART
10201120,
10201120,
10210120,
1010200011102000,
10201120,
10221020,
10221020,
1000201011102220,
10201120,
11201120,
11201120,
1010200011102000,
10201120,
11201120,
10210120,
11212012,
10201120,
10201120,
10210120,
1010200011102000,
10201120,
10221020,
10221020,
1000201011102220,
10201120,
11201120,
11201120,
1010200011102000,
10201120,
11201120,
10210120,
11212012,
#GOGOEND
01210122,
10212022,
5,
00000082,
10210120,
11201221,
44044044,
#END
COURSE:Normal
LEVEL:4
BALLOON:
SCOREINIT:
SCOREDIFF:
NOTESDESIGNER1:Colin
#START
30030030,
,
1110,
1110,
1110,
1110,
1110,
1110,
1110,
1110,
2020,
2020,
2020,
2020,
2020,
2020,
2020,
2050,
,
,
,
0008,
1020,
1,
1210,
1210,
1020,
1,
1020,
2,
1,
#GOGOSTART
1020,
1020,
5008,
1010,
1020,
1010,
1111,
1,
1020,
1020,
5008,
1010,
1020,
1010,
1111,
1,
1020,
1020,
5008,
1010,
1020,
1010,
1111,
1,
1020,
1020,
5008,
1010,
1020,
1010,
1111,
1,
#GOGOEND
5,
,
,
,
8,
,
44044044,
#END
COURSE:Easy
LEVEL:2
BALLOON:
SCOREINIT:
SCOREDIFF:
NOTESDESIGNER0:Colin
#START
30030030,
,
1010,
1,
1010,
1,
1010,
1,
1010,
1,
2,
2,
2,
2,
2,
2,
2,
2050,
,
,
,
0008,
1020,
1,
1010,
1,
1020,
1,
1020,
1,
1,
#GOGOSTART
5,
,
0008,
1010,
1,
1010,
1010,
1,
5,
,
0008,
1010,
1,
1010,
1010,
1,
5,
,
0008,
1010,
1,
1010,
1010,
1,
5,
,
0008,
1010,
1,
1010,
1010,
1,
#GOGOEND
5,
,
,
,
8,
,
44044044,
#END