Files
2025-06-11 19:53:16 -04:00

429 lines
5.6 KiB
Plaintext
Raw Permalink Blame History

This file contains ambiguous Unicode characters
This file contains Unicode characters that might be confused with other characters. If you think that this is intentional, you can safely ignore this warning. Use the Escape button to reveal them.
TITLE:Shikisai
SUBTITLE:--yama / SPY×FAMILY
BPM:117
WAVE:Shikisai.ogg
OFFSET:-0.922
DEMOSTART:54.768
MAKER:Colin & Guiven Yong
COURSE:Edit
LEVEL:8
BALLOON:
SCOREINIT:
SCOREDIFF:
NOTESDESIGNER4:Colin
#START
#SCROLL 1.5
100200201201202202002000,
100200102101201102101201,
200000100200100000100010200020200020100020100010,
201200101010202020102222,
111111200101202101202102,
100000000000200200200200100000200000100000100000200000200200100000001000200000000000100000000000,
200200100101201202102101,
200000000000200200200200100000000000000000000000000000000000000000000000200010001000100010001000,
200200200200100010001000
#GOGOSTART
200000000000100000001000200000000000100000002000100000002000100000001000,
200000000000200200200200100020000000100000100100200000002000100000002000100000002000100000001000,
200102
#GOGOEND
101202102101202102,
100000001000200000002000100000001000200000001000200200200200100000002000100000001000200000000000,
100200100100200102002101,
201101200102100100200200,
102101200101202101201201,
202102100201200101202101,
202101101200200102002101,
200000001000200000002000100100100100200000100000200000100000100000200000100000200000100000200000,
100100100200100010200020100010200010100020100020,
100000001000200000002000100000001000200000001000200200200200100000001000200000002000100000001000,
201202100201200102101201,
201202100202100102100200,
100200100020100010200200100010200020100010200020,
101202101201200202101200,
#MEASURE 6/4
100000200000100200200000100000000000200000100000200000001000200000002000100000001000200000001000200000001000200000002000100000000000000000001000,
#MEASURE 3/4
100000000000000000000000200000001000100010001000200200200200100100100100,
#MEASURE 4/4
#GOGOSTART
101201201201001202101200,
102101202102101201202122,
101201221201201200101202,
101200202101222102101200,
101201201202101202101202,
122101202101202101202101,
221201221202101201201202,
101101202101222102101
#GOGOEND
200,
#GOGOSTART
101201201202101202101200,
122101202102101201202122,
101201221201201200101202,
101200202101222102101
#GOGOEND
200,
#GOGOSTART
101201201201201202101202,
122101202102111201202122,
10120122120120120010110
#GOGOEND
2,
#GOGOSTART
#SCROLL 1.3
3
#GOGOEND
00000000000
#GOGOSTART
#SCROLL 1.1
3
#GOGOEND
00000000000
#GOGOSTART
#SCROLL 1
3
#GOGOEND
00000000000
#GOGOSTART
#SCROLL 0.7
3
#GOGOEND
00000000000,
#END
COURSE:Oni
LEVEL:7
BALLOON:
SCOREINIT:
SCOREDIFF:
NOTESDESIGNER3:Guiven Yong
#START
11102001,
20102001,
21102011,
100000200000100010001000200020002000200200200200,
1120101121120010,
1000101121120020,
1020100020110020,
1010300000001111,
2222
#GOGOSTART
101021120010,
2112100120111201,
11
#GOGOEND
102101,
1000100100100010,
12110100,
0022201020201020,
2112101021201122,
0110000010202010,
2122012210101112,
1020222220111010,
2110101020112012,
0020101120102212,
0020101200102022,
02112212,
1022102020101110,
2120100010201010,
#MEASURE 6/4
202010120010202200203000,
#MEASURE 3/4
000000300000211100,
#MEASURE 4/4
#GOGOSTART
1011211201101020,
1011211202102021,
1000211201102120,
1001101020101120,
1011211202101000,
1011211202102022,
1000211201201120,
10012011120110
#GOGOEND
10,
#GOGOSTART
1011211201101020,
1011211202102021,
1000211201102120,
10011010201011
#GOGOEND
20,
#GOGOSTART
1011211202101000,
1011211202102022,
1000000000002001001002000001002000001001002000
#GOGOEND
00,
#GOGOSTART
3
#GOGOEND
00000000000
#GOGOSTART
3
#GOGOEND
00000000000
#GOGOSTART
3
#GOGOEND
00000000000
#GOGOSTART
3
#GOGOEND
00000000000,
#END
COURSE:Hard
LEVEL:4
BALLOON:
SCOREINIT:
SCOREDIFF:
NOTESDESIGNER2:Colin
#START
1200,
1200,
1100,
0500,
000000800000200000100001,
10112022,
100100100002201000100100,
2105,
00
#GOGOSTART
812111,
21112111,
2
#GOGOEND
100,
0100,
0100,
0100,
00111011,
10111011,
10111011,
1,
1111,
1111,
1111,
1122,
2121,
2222,
#MEASURE 6/4
222220,
#MEASURE 3/4
011,
#MEASURE 4/4
#GOGOSTART
100101100011002000100200,
101102202050000000000000,
000080101100100200100200,
12112222,
100101100011002000100200,
101102202050000000000000,
000080101100100200100200,
1211222
#GOGOEND
2,
#GOGOSTART
100101100011002000100200,
101102202050000000000000,
000080101100100200100200,
1211222
#GOGOEND
2,
#GOGOSTART
100101100011002000100200,
101102202050000000000000,
00008010110010020010020
#GOGOEND
0,
#GOGOSTART
1
#GOGOEND
00000200000
#GOGOSTART
1
#GOGOEND
00000100000
#GOGOSTART
2
#GOGOEND
00000200000
#GOGOSTART
2
#GOGOEND
00000200000,
#END
COURSE:Normal
LEVEL:4
BALLOON:
SCOREINIT:
SCOREDIFF:
NOTESDESIGNER1:Colin
#START
0200,
0200,
0200,
0500,
0821,
2020,
0010,
2005,
0
#GOGOSTART
811,
2112,
2
#GOGOEND
202,
0202,
0200,
0202,
0222,
0222,
0222,
0101,
0111,
0111,
0111,
0111,
1102,
0102,
#MEASURE 6/4
020202,
#MEASURE 3/4
,
#MEASURE 4/4
#GOGOSTART
6008,
6,
0822,
1222,
6008,
6,
0822,
1020202
#GOGOEND
0,
#GOGOSTART
6008,
6,
0822,
1020202
#GOGOEND
0,
#GOGOSTART
6008,
6,
00000080000020000020000
#GOGOEND
0,
#GOGOSTART
1
#GOGOEND
00000000000
#GOGOSTART
2
#GOGOEND
00000000000
#GOGOSTART
2
#GOGOEND
00000000000
#GOGOSTART
2
#GOGOEND
00000000000,
#END
COURSE:Easy
LEVEL:3
BALLOON:
SCOREINIT:
SCOREDIFF:
NOTESDESIGNER0:Guiven Yong
#START
1202,
1202,
1010,
1,
10010010,
10010020,
1011,
3,
1
#GOGOSTART
210,
1001000010010000,
10
#GOGOEND
010000,
1001001000000000,
10010000,
1001001000002000,
10010000,
1001001000000000,
10010000,
1001001000001000,
1210,
1001001000000000,
1210,
1001001000001000,
1210,
1001001000000000,
#MEASURE 6/4
100100002002000030000000,
#MEASURE 3/4
301,
#MEASURE 4/4
#GOGOSTART
2101,
1101,
0201,
1000200020001001,
0010000010001001,
01002010,
0201,
1020201
#GOGOEND
0,
#GOGOSTART
2101,
1101,
0201,
10002000200010
#GOGOEND
01,
#GOGOSTART
0010000010001001,
01002010,
00000020000000000030000
#GOGOEND
0,
300000000000
#GOGOSTART
3
#GOGOEND
00000000000
#GOGOSTART
3
#GOGOEND
00000000000
#GOGOSTART
1
#GOGOEND
00000000000,
#END