generated from DragonRatTiger/Custom-Charts
271 lines
2.7 KiB
Plaintext
271 lines
2.7 KiB
Plaintext
TITLE:Touch You
|
|
SUBTITLE:--Shiritsu MoriMouri Gakuen Senshun♥Danshis / Yarichin☆Bitch-bu
|
|
BPM:135
|
|
WAVE:Touch You.ogg
|
|
OFFSET:-0.528
|
|
DEMOSTART:60.972
|
|
MAKER:Colin
|
|
|
|
COURSE:Oni
|
|
LEVEL:8
|
|
BALLOON:
|
|
SCOREINIT:
|
|
SCOREDIFF:
|
|
NOTESDESIGNER3:Colin
|
|
|
|
#START
|
|
1022121121112000,
|
|
32323232,
|
|
68333333,
|
|
3003003030201022,
|
|
1021021010221120,
|
|
32323232,
|
|
68333333,
|
|
1111222211112222,
|
|
1020102010021000,
|
|
#GOGOSTART
|
|
1022120102102010,
|
|
1021202120112210,
|
|
1022120102102010,
|
|
1021202120112222,
|
|
1022120102102010,
|
|
1021202120112211,
|
|
1111222211121222,
|
|
1022102210112022,
|
|
1022120212212211,
|
|
#GOGOEND
|
|
1021221010212010,
|
|
1210221202102012,
|
|
1021221120212011,
|
|
2012021022112211,
|
|
1021211011221120,
|
|
1021212210112211,
|
|
2011202210221020,
|
|
0020202211221122,
|
|
1001201020221022,
|
|
1021202211221022,
|
|
1011202210012012,
|
|
1011201040104012,
|
|
1022102212212022,
|
|
1011202212212022,
|
|
58585858,
|
|
100200000200000200000200100000101010200000000000,
|
|
#GOGOSTART
|
|
32323232,
|
|
68333333,
|
|
3003003030201022,
|
|
1021021010221120,
|
|
32323232,
|
|
68333333,
|
|
3003003060802122,
|
|
100000000100200000100100200000101010200200200200,
|
|
12222223,
|
|
33333030,
|
|
1022120102102010,
|
|
1021202120112210,
|
|
1022120102102010,
|
|
1021202120112211,
|
|
1122122021112060,
|
|
000000000000000800222100,
|
|
#GOGOEND
|
|
#END
|
|
|
|
COURSE:Hard
|
|
LEVEL:4
|
|
BALLOON:
|
|
SCOREINIT:
|
|
SCOREDIFF:
|
|
NOTESDESIGNER2:Colin
|
|
|
|
#START
|
|
1022202220222000,
|
|
3333,
|
|
68333333,
|
|
3003003060008011,
|
|
1001002220022020,
|
|
3333,
|
|
68333333,
|
|
3003003060008000,
|
|
21212020,
|
|
#GOGOSTART
|
|
32203220,
|
|
32323200,
|
|
32203220,
|
|
32323232,
|
|
32203220,
|
|
32323200,
|
|
32203220,
|
|
32323232,
|
|
1020110222022020,
|
|
#GOGOEND
|
|
1001001010010050,
|
|
00080000,
|
|
2220202010010058,
|
|
1001101011101110,
|
|
12101210,
|
|
1001001011102010,
|
|
5080508050850850,
|
|
0000008011101110,
|
|
11211120,
|
|
11211120,
|
|
3333,
|
|
12124040,
|
|
11211121,
|
|
02120221,
|
|
58585850,
|
|
0008,
|
|
#GOGOSTART
|
|
3333,
|
|
68333333,
|
|
3003003060008011,
|
|
1001002220022020,
|
|
3333,
|
|
68333333,
|
|
3003003060008020,
|
|
2002002050008000,
|
|
1002001020000000,
|
|
32323020,
|
|
32203220,
|
|
32323200,
|
|
32203220,
|
|
32323232,
|
|
50000085,
|
|
00000008,
|
|
#GOGOEND
|
|
#END
|
|
|
|
|
|
COURSE:Normal
|
|
LEVEL:4
|
|
BALLOON:
|
|
SCOREINIT:
|
|
SCOREDIFF:
|
|
NOTESDESIGNER1:Colin
|
|
|
|
#START
|
|
5008,
|
|
3333,
|
|
60000008,
|
|
30033000,
|
|
2022,
|
|
3333,
|
|
60000008,
|
|
3,
|
|
3,
|
|
#GOGOSTART
|
|
11101110,
|
|
4440,
|
|
11101110,
|
|
4444,
|
|
11101110,
|
|
4440,
|
|
11101110,
|
|
4444,
|
|
0,
|
|
#GOGOEND
|
|
22,
|
|
50000008,
|
|
11,
|
|
50000008,
|
|
1010100010010000,
|
|
1001001010100010,
|
|
5,
|
|
00082020,
|
|
20202022,
|
|
02220010,
|
|
10101011,
|
|
11110000,
|
|
50801021,
|
|
01110111,
|
|
1115,
|
|
00000008,
|
|
#GOGOSTART
|
|
3333,
|
|
60000008,
|
|
30033000,
|
|
2022,
|
|
3333,
|
|
60000008,
|
|
3,
|
|
3,
|
|
30000003,
|
|
33333030,
|
|
6,
|
|
0008,
|
|
33,
|
|
3333,
|
|
50000085,
|
|
0008,
|
|
#GOGOEND
|
|
#END
|
|
|
|
COURSE:Easy
|
|
LEVEL:2
|
|
BALLOON:
|
|
SCOREINIT:
|
|
SCOREDIFF:
|
|
NOTESDESIGNER0:Colin
|
|
|
|
#START
|
|
5008,
|
|
3,
|
|
3,
|
|
3,
|
|
22,
|
|
3,
|
|
3,
|
|
3,
|
|
2,
|
|
#GOGOSTART
|
|
33,
|
|
33,
|
|
33,
|
|
33,
|
|
33,
|
|
33,
|
|
33,
|
|
33,
|
|
#GOGOEND
|
|
2,
|
|
11,
|
|
1,
|
|
11,
|
|
1,
|
|
11,
|
|
1,
|
|
5,
|
|
00082020,
|
|
22,
|
|
22,
|
|
2222,
|
|
2220,
|
|
22,
|
|
2022,
|
|
5,
|
|
00000008,
|
|
#GOGOSTART
|
|
3,
|
|
3,
|
|
3,
|
|
22,
|
|
3,
|
|
3,
|
|
3,
|
|
2,
|
|
3,
|
|
33,
|
|
33,
|
|
33,
|
|
33,
|
|
33,
|
|
50000085,
|
|
00000008,
|
|
#GOGOEND
|
|
#END
|
|
|
|
|
|
|
|
|
|
|
|
|