generated from DragonRatTiger/Custom-Charts
329 lines
3.5 KiB
Plaintext
329 lines
3.5 KiB
Plaintext
TITLE:UNDEAD
|
||
SUBTITLE:--YOASOBI / Monogatari Series:Off & Monster Season
|
||
TITLEJA:UNDEAD
|
||
SUBTITLEJA:YOASOBI 「〈物語〉シリーズ オフ&モンスターシーズン」より
|
||
PREIMAGE:UNDEAD.jpg
|
||
BGMOVIE:UNDEAD.mp4
|
||
WAVE:UNDEAD.ogg
|
||
BPM:144
|
||
OFFSET:-0.824
|
||
DEMOSTART:60.199
|
||
MAKER:Colin
|
||
|
||
COURSE:Easy
|
||
LEVEL:2
|
||
SCOREINIT:
|
||
SCOREDIFF:
|
||
NOTESDESIGNER0:Colin
|
||
|
||
#START
|
||
#MEASURE 1/8
|
||
3,
|
||
#MEASURE 4/4
|
||
#BARLINEOFF
|
||
30000003,
|
||
#BARLINEON
|
||
30000003,
|
||
30000003,
|
||
3330,
|
||
#GOGOSTART
|
||
3010,
|
||
1110,
|
||
2020,
|
||
#GOGOEND
|
||
4,
|
||
#GOGOSTART
|
||
4020,
|
||
2220,
|
||
2020,
|
||
20202
|
||
#GOGOEND
|
||
000,
|
||
#GOGOSTART
|
||
1010,
|
||
1110,
|
||
2020,
|
||
#GOGOEND
|
||
4,
|
||
3010,
|
||
1110,
|
||
2020,
|
||
2220,
|
||
1010,
|
||
1110,
|
||
2020,
|
||
2220,
|
||
3010,
|
||
1110,
|
||
1010,
|
||
2020,
|
||
1110,
|
||
2220,
|
||
1010,
|
||
1110,
|
||
3,
|
||
1010,
|
||
1,
|
||
3,
|
||
#GOGOSTART
|
||
4020,
|
||
2220,
|
||
1010,
|
||
1110,
|
||
2020,
|
||
2220,
|
||
1010,
|
||
1110,
|
||
3010,
|
||
1110,
|
||
2020,
|
||
2220,
|
||
1010,
|
||
1110,
|
||
2020,
|
||
#GOGOEND
|
||
400000000000
|
||
#GOGOSTART
|
||
400
|
||
#GOGOEND
|
||
0,
|
||
#END
|
||
|
||
COURSE:Normal
|
||
LEVEL:3
|
||
SCOREINIT:
|
||
SCOREDIFF:
|
||
NOTESDESIGNER1:Colin
|
||
|
||
#START
|
||
#MEASURE 1/8
|
||
3,
|
||
#MEASURE 4/4
|
||
#BARLINEOFF
|
||
30000003,
|
||
#BARLINEON
|
||
30000003,
|
||
30000003,
|
||
3330,
|
||
#GOGOSTART
|
||
30111010,
|
||
10111000,
|
||
2222,
|
||
#GOGOEND
|
||
4004,
|
||
#GOGOSTART
|
||
40222020,
|
||
20222000,
|
||
20202022,
|
||
20202
|
||
#GOGOEND
|
||
000,
|
||
#GOGOSTART
|
||
10101011,
|
||
1110,
|
||
20202022,
|
||
#GOGOEND
|
||
4,
|
||
30111010,
|
||
1110,
|
||
20202002,
|
||
2220,
|
||
10011001,
|
||
1110,
|
||
2220,
|
||
20222020,
|
||
30001011,
|
||
1110,
|
||
1110,
|
||
2220,
|
||
10111010,
|
||
2220,
|
||
10111010,
|
||
1110,
|
||
3020,
|
||
10011000,
|
||
1110,
|
||
3,
|
||
#GOGOSTART
|
||
40222002,
|
||
2220,
|
||
10101011,
|
||
1110,
|
||
20222020,
|
||
20222000,
|
||
10111010,
|
||
1110,
|
||
30111010,
|
||
10111000,
|
||
20202022,
|
||
2220,
|
||
10111010,
|
||
10111000,
|
||
20222020,
|
||
#GOGOEND
|
||
400000400040
|
||
#GOGOSTART
|
||
400
|
||
#GOGOEND
|
||
0,
|
||
#END
|
||
|
||
COURSE:Hard
|
||
LEVEL:5
|
||
SCOREINIT:
|
||
SCOREDIFF:
|
||
NOTESDESIGNER2:Colin
|
||
|
||
#START
|
||
#MEASURE 1/8
|
||
4,
|
||
#MEASURE 4/4
|
||
#BARLINEOFF
|
||
4040100010010030,
|
||
#BARLINEON
|
||
3030202020020040,
|
||
4040100010010030,
|
||
3040304030030040,
|
||
#GOGOSTART
|
||
3000200010010020,
|
||
1000100010010020,
|
||
1020010200202020,
|
||
#GOGOEND
|
||
1001020200201040,
|
||
#GOGOSTART
|
||
4040102010020030,
|
||
3030200010020040,
|
||
4040102010010030,
|
||
43212
|
||
#GOGOEND
|
||
121,
|
||
#GOGOSTART
|
||
3020100011010020,
|
||
12121212,
|
||
3333,
|
||
#GOGOEND
|
||
30000222,
|
||
3000202010020010,
|
||
1020100100222020,
|
||
10201120,
|
||
1001022011011000,
|
||
3000200010110020,
|
||
1020102010010020,
|
||
12121222,
|
||
12111020,
|
||
30201122,
|
||
10201122,
|
||
10201122,
|
||
12121020,
|
||
10211221,
|
||
1000220010022000,
|
||
11201122,
|
||
1212,
|
||
30220022,
|
||
00220202,
|
||
10120122,
|
||
34434040,
|
||
#GOGOSTART
|
||
3000100020220010,
|
||
2000200222001010,
|
||
11222211,
|
||
21110201,
|
||
1000202020010020,
|
||
1020102010020010,
|
||
2002010200201020,
|
||
1000200010011010,
|
||
3010202010010020,
|
||
1020102010010010,
|
||
22221210,
|
||
11221020,
|
||
1020102010020020,
|
||
1020102010010020,
|
||
2010102011010020,
|
||
#GOGOEND
|
||
300304030030
|
||
#GOGOSTART
|
||
300
|
||
#GOGOEND
|
||
0,
|
||
#END
|
||
|
||
COURSE:Oni
|
||
LEVEL:8
|
||
BALLOON:24
|
||
SCOREINIT:
|
||
SCOREDIFF:
|
||
NOTESDESIGNER3:Colin
|
||
|
||
#START
|
||
#MEASURE 1/8
|
||
4,
|
||
#MEASURE 4/4
|
||
#BARLINEOFF
|
||
4040212222020120,
|
||
#BARLINEON
|
||
4040212211020210,
|
||
4040212122020210,
|
||
4040304030210120,
|
||
#GOGOSTART
|
||
3021202020110120,
|
||
1020102120210120,
|
||
1122010201202010,
|
||
#GOGOEND
|
||
1101020101201040,
|
||
#GOGOSTART
|
||
3020212012110120,
|
||
1120202012020212,
|
||
1210212011210121,
|
||
23434
|
||
#GOGOEND
|
||
333,
|
||
#GOGOSTART
|
||
3020112012210120,
|
||
1120121021121122,
|
||
7,
|
||
#GOGOEND
|
||
8000000030202022,
|
||
1010202210120122,
|
||
2021102102221010,
|
||
1012222112112020,
|
||
1121021021021012,
|
||
1020101210210210,
|
||
2021020120120120,
|
||
21222222,
|
||
12111040,
|
||
3020102012110120,
|
||
3020212020120120,
|
||
12122112,
|
||
1020102010212022,
|
||
1020122020210120,
|
||
3010210120110210,
|
||
21212122,
|
||
10221122,
|
||
2011201011102011,
|
||
1011202120102020,
|
||
4010201122112222,
|
||
24434040,
|
||
#GOGOSTART
|
||
4010220120120210,
|
||
1020120222010210,
|
||
1010212010212020,
|
||
1011202212012120,
|
||
3020201211120210,
|
||
1120221010210120,
|
||
2022020210121022,
|
||
1101201120112020,
|
||
3010102010210120,
|
||
1020102020220210,
|
||
22122212,
|
||
12121020,
|
||
2010201020120120,
|
||
2010101020220120,
|
||
2010202021010120,
|
||
#GOGOEND
|
||
202102010120
|
||
#GOGOSTART
|
||
300
|
||
#GOGOEND
|
||
0,
|
||
#END
|