Files
2025-12-20 15:50:25 -05:00

228 lines
3.2 KiB
Plaintext
Raw Permalink Blame History

This file contains ambiguous Unicode characters
This file contains Unicode characters that might be confused with other characters. If you think that this is intentional, you can safely ignore this warning. Use the Escape button to reveal them.
TITLE:W●RK
SUBTITLE:--millennium parade feat. Ringo Shiina / Hell's Paradise:Jigokuraku
TITLEJA:W●RK
SUBTITLEJA:millennium parade feat. 椎名林檎 「地獄楽」より
PREIMAGE:WORK.jpg
BGMOVIE:WORK.mp4
WAVE:WORK.ogg
BPM:105
OFFSET:-0.701
DEMOSTART:51.558
MAKER:Colin
COURSE:Easy
LEVEL:1
SCOREINIT:
SCOREDIFF:
NOTESDESIGNER0:Colin
#START
3,
3,
3,
3,
#GOGOSTART
1110,
2220,
1110,
2220,
#GOGOEND
1200,
1200,
1200,
1200,
1202,
1202,
1202,
1202,
3000000300000000,
3000000300000000,
3000000300000000,
33000000,
33300000,
#MEASURE 6/4
004000,
#MEASURE 4/4
#GOGOSTART
1110,
1210,
2220,
2120,
1110,
2220,
1020,
5,
8010,
1110,
2020,
2220,
1010,
1110,
1010,
100010001000000
#GOGOEND
4,
#END
COURSE:Normal
LEVEL:4
SCOREINIT:
SCOREDIFF:
NOTESDESIGNER1:Colin
#START
3000300300000000,
3000300300000000,
3000300300000000,
3000300300000000,
#GOGOSTART
2000200200000000,
2000200200000000,
2000200200000000,
2000200200000000,
#GOGOEND
1202,
1202,
1202,
1202,
1002000000002000,
1120,
1120,
10101111,
3000000400000000,
3000000400000000,
3000000400000000,
33000000,
33300000,
#MEASURE 6/4
004000,
#MEASURE 4/4
#GOGOSTART
1000100100002000,
1000100100002000,
1000100100001000,
2000200200001000,
1000100100002000,
1000100100002000,
1000100100002000,
5000000000000008,
1000200100000000,
1000100100000000,
2000200100000000,
1000100100000000,
2000200100000000,
1000100200000000,
1000100100000000,
200020020000000
#GOGOEND
4,
#END
COURSE:Hard
LEVEL:3
SCOREINIT:
SCOREDIFF:
NOTESDESIGNER2:Colin
#START
3000300300000000,
3000300300000000,
3000300300000000,
3000300300002220,
#GOGOSTART
1000200100101100,
1000200100101100,
1000200100011100,
1002200200111010,
#GOGOEND
1000220220020020,
0000220020020220,
0000200220220220,
02010102,
0000110220020020,
1000110110110110,
0000220220220020,
2022005000000000,
8002010101111022,
2020010200202220,
11212122,
0011002020202011,
1020202202220000,
#MEASURE 6/4
002020204022000000000000,
#MEASURE 4/4
#GOGOSTART
1001200200201102,
0020002200102202,
0020220200202202,
0010002200201102,
0020220200202202,
0020002200201101,
0020022201110100,
4004004060000000,
8000200100102000,
1000200100102000,
1000200100102000,
1000200100102000,
1000200100102000,
1000200100102000,
1000200100102000,
100020010222222
#GOGOEND
2,
#END
COURSE:Oni
LEVEL:7
SCOREINIT:
SCOREDIFF:
NOTESDESIGNER3:Colin
#START
2000100202022010,
2000102221220210,
2000100202022020,
10111010201000200020101020202022,
#GOGOSTART
1011201102012102,
1011202111210210,
1000201102012120,
10001010201010200020202020111011,
#GOGOEND
20000000202000101000102000102022,
10000010102000102000202000102022,
10000010202020201000102000102022,
10002010200010200020201020201022,
10000010202000202000101020202022,
10001010102000101000101020202022,
1011220120212010,
20102010200010200020100010111011,
1122210302121122,
1011210402121122,
1011202210121211,
2121012121212012,
10201000400022222222222222222222,
#MEASURE 6/4
222222222222222220000000000000000000000000000000,
#MEASURE 4/4
#GOGOSTART
4022110201212102,
1011201201112201,
2011220201212202,
2011211201212111,
1011221201112212,
1012202201212102,
1021221101120201,
20002010201010200020201020111010,
2011201202012012,
1011211201212102,
1011201201212102,
1011201202221121,
2011201201012202,
1011201222210121,
2011201202012020,
100010102000102000202010201110
#GOGOEND
20,
#END