Files
2025-06-11 19:53:16 -04:00

359 lines
2.9 KiB
Plaintext

TITLE:01
SUBTITLE:--QUEEN BEE / Undead Unluck
TITLEJA:01
SUBTITLEJA:女王蜂 「アンデッドアンラック」より
PREIMAGE:ZeroIchi.png
BGMOVIE:ZeroIchi.mp4
WAVE:ZeroIchi.ogg
BPM:180
OFFSET:-2.552
DEMOSTART:65.885
MAKER:Colin
COURSE:Easy
LEVEL:2
SCOREINIT:
SCOREDIFF:
NOTESDESIGNER0:Colin
#START
2,
2,
2,
2,
2,
2,
2,
2,
1,
1010,
1,
1010,
1,
1010,
1,
1110,
2,
2020,
2,
2020,
2,
2020,
2,
1010,
#GOGOSTART
1,
1110,
1,
1011,
1010,
1,
1010,
1110,
#GOGOEND
1,
1010,
1,
2020,
2,
2020,
2,
2020,
2,
2,
2,
2,
2222,
2020,
#MEASURE 6/4
202222,
#MEASURE 4/4
#SCROLL 0.5
3
#SCROLL 0.625
0
#SCROLL 0.75
0
#SCROLL 0.875
0,
#GOGOSTART
#SCROLL 1
3011,
1010,
2220,
2010,
1010,
1,
1011,
1010,
3010,
1,
1110,
1,
2020,
2,
#GOGOEND
2020,
2022,
#END
COURSE:Normal
LEVEL:4
SCOREINIT:
SCOREDIFF:
NOTESDESIGNER1:Colin
#START
2,
2,
2,
2,
2,
2,
2,
2,
1011,
1010,
10111000,
1110,
1,
10111000,
1010,
10111100,
2020,
20222000,
2020,
20222020,
2020,
20002022,
2020,
1011,
#GOGOSTART
1010,
10111000,
1010,
10111010,
1010,
10111000,
1010,
10111000,
#GOGOEND
10000100,
1011,
10002022,
2022,
2,
2220,
20002022,
2220,
2,
2020,
2,
2,
20222020,
2220,
#MEASURE 6/4
200020202220,
#MEASURE 4/4
#SCROLL 0.5
3
#SCROLL 0.625
0
#SCROLL 0.75
0
#SCROLL 0.875
0,
#GOGOSTART
#SCROLL 1
30001011,
1010,
20202022,
2010,
10111010,
1010,
10111010,
1011,
30001011,
1010,
10111010,
1010,
20222020,
2020,
#GOGOEND
2020,
2022,
#END
COURSE:Hard
LEVEL:4
SCOREINIT:
SCOREDIFF:
NOTESDESIGNER2:Colin
#START
2,
2,
2,
2,
2,
2,
2,
2,
10200120,
10200120,
10200120,
10201120,
10200120,
10200120,
10200120,
10201122,
10200120,
10200120,
10200120,
10201120,
10200120,
10200120,
10200120,
10201122,
#GOGOSTART
10200120,
10210120,
10200120,
1000201011102000,
10200120,
10210120,
10200120,
11221122,
#GOGOEND
10200120,
10200120,
10200120,
10201120,
10200120,
10200120,
10200120,
10201122,
3,
3,
3,
3,
3333,
3333,
#MEASURE 6/4
333333,
#MEASURE 4/4
#SCROLL 0.5
0
#SCROLL 0.625
0
#SCROLL 0.75
0
#SCROLL 0.875
0,
#GOGOSTART
#SCROLL 1
4343,
44001120,
3443,
43001120,
10201120,
10201120,
10201121,
0010201110102020,
4343,
44001120,
30443040,
43001122,
10201120,
10201120,
#GOGOEND
3030,
3333,
#END
COURSE:Oni
LEVEL:5
SCOREINIT:
SCOREDIFF:
NOTESDESIGNER3:Colin
#START
11120210,
11120210,
11120212,
12220210,
11120210,
11120210,
11120210,
11120210,
31222211,
21212022,
12202020,
21102100,
01122211,
11202020,
12202222,
11122100,
02120112,
12221222,
01010111,
22212121,
01220221,
22112121,
01220120,
11221021,
#GOGOSTART
30210122,
20210120,
10201122,
1000201110102000,
30210122,
20210120,
10201122,
1000201110102020,
#GOGOEND
31122211,
21202021,
12202212,
21202120,
01112122,
11212011,
21201021,
22021121,
01120121,
21212222,
01220122,
22222222,
02220101,
12111122,
#MEASURE 6/4
012200012202,
#MEASURE 4/4
#SCROLL 0.5
3
#SCROLL 0.625
3
#SCROLL 0.75
4
#SCROLL 0.875
4,
#GOGOSTART
#SCROLL 1
40304011,
21012222,
10212012,
11002221,
02222110,
10201221,
01222211,
0010201010112020,
40303011,
22002222,
1022202010002010,
21002222,
02011211,
10201221,
#GOGOEND
01222210,
21212121,
#END