generated from DragonRatTiger/Custom-Charts
363 lines
3.3 KiB
Plaintext
363 lines
3.3 KiB
Plaintext
TITLE:daze
|
|
TITLEJA:daze
|
|
SUBTITLE:--Jin feat. MARiA from GARNiDELiA / Mekakucity Actors
|
|
SUBTITLEJA:じん feat. MARiA from GARNiDELiA「メカクシティアクターズ」より
|
|
PREIMAGE:daze.jpg
|
|
BPM:198
|
|
WAVE:daze.ogg
|
|
OFFSET:-0.167
|
|
DEMOSTART:54.333
|
|
MAKER:Colin
|
|
|
|
COURSE:Oni
|
|
LEVEL:9
|
|
BALLOON:
|
|
SCOREINIT:
|
|
SCOREDIFF:
|
|
NOTESDESIGNER3:Colin
|
|
|
|
|
|
#START
|
|
2000200020112010,
|
|
0010202010221110,
|
|
0010221011101120,
|
|
0010202010221210,
|
|
00221111202000
|
|
#GOGOSTART
|
|
10,
|
|
0010201120201010,
|
|
2011202010102010,
|
|
0011202010102010,
|
|
2010202010222210,
|
|
0010202010112010,
|
|
11221121,
|
|
0010201120101010,
|
|
41401121,
|
|
#GOGOEND
|
|
01221121,
|
|
11212121,
|
|
01211121,
|
|
01221221,
|
|
01211121,
|
|
1110201010102010,
|
|
02112112,
|
|
1020222220102010,
|
|
0010201120102010,
|
|
0010201120112010,
|
|
0010221020102010,
|
|
0010201120102010,
|
|
0010201120201020,
|
|
11211121,
|
|
01221121,
|
|
1020111122221010,
|
|
32323223,
|
|
2030203021112011,
|
|
20212121,
|
|
1020101010202111,
|
|
20121121,
|
|
01211121,
|
|
02112212,
|
|
0010221112221020,
|
|
3020302031111030,
|
|
2030203010222022,
|
|
10211121,
|
|
0010201020020020,
|
|
11210211,
|
|
12111210,
|
|
2111102211102210,
|
|
11110040,
|
|
#GOGOSTART
|
|
3000201120102022,
|
|
1011201010004000,
|
|
3000201110102010,
|
|
11211120,
|
|
10211121,
|
|
11211120,
|
|
11212020,
|
|
1011101110132011,
|
|
40212211,
|
|
2011201000104000,
|
|
30221122,
|
|
12120121,
|
|
10210122,
|
|
10210122,
|
|
10122122,
|
|
1020101022222222,
|
|
10211122,
|
|
1010201020102022,
|
|
1010202210102020,
|
|
1010202210102022,
|
|
1011201022101010,
|
|
21202112,
|
|
0020101120201020,
|
|
0010221011111020,
|
|
0010201020222230,
|
|
03030304,
|
|
03030323,
|
|
#GOGOEND
|
|
#END
|
|
|
|
|
|
COURSE:Hard
|
|
LEVEL:7
|
|
BALLOON:
|
|
SCOREINIT:
|
|
SCOREDIFF:
|
|
NOTESDESIGNER2:Colin
|
|
|
|
|
|
#START
|
|
20202333,
|
|
00000003,
|
|
00000003,
|
|
00000004,
|
|
0403440
|
|
#GOGOSTART
|
|
1,
|
|
01201021,
|
|
01201021,
|
|
01201021,
|
|
01201021,
|
|
01201021,
|
|
01201021,
|
|
01202020,
|
|
40400333,
|
|
#GOGOEND
|
|
0212,
|
|
0212,
|
|
0212,
|
|
00201021,
|
|
01201020,
|
|
00201021,
|
|
01210121,
|
|
01202021,
|
|
01201121,
|
|
01201121,
|
|
01201121,
|
|
02250080,
|
|
01201121,
|
|
01201121,
|
|
01210125,
|
|
00080000,
|
|
30303003,
|
|
03030122,
|
|
10210201,
|
|
01201120,
|
|
10210025,
|
|
0,
|
|
0,
|
|
08,
|
|
30333002,
|
|
01212010,
|
|
20120121,
|
|
0010200020020020,
|
|
20112021,
|
|
01201025,
|
|
00000008,
|
|
0004,
|
|
#GOGOSTART
|
|
30201120,
|
|
10210140,
|
|
30201120,
|
|
10210120,
|
|
10210201,
|
|
02010120,
|
|
10210201,
|
|
02010040,
|
|
30201120,
|
|
10210140,
|
|
30201120,
|
|
10210120,
|
|
10210020,
|
|
10210120,
|
|
20120120,
|
|
12021025,
|
|
0,
|
|
0,
|
|
0802,
|
|
0202,
|
|
1122,
|
|
10100112,
|
|
00102101,
|
|
01211201,
|
|
01222203,
|
|
03030303,
|
|
03030303,
|
|
#GOGOEND
|
|
#END
|
|
|
|
COURSE:Normal
|
|
LEVEL:3
|
|
BALLOON:
|
|
SCOREINIT:
|
|
SCOREDIFF:
|
|
NOTESDESIGNER1:Colin
|
|
|
|
|
|
#START
|
|
0003,
|
|
00000003,
|
|
00000003,
|
|
0,
|
|
00000000000000
|
|
#GOGOSTART
|
|
00,
|
|
12,
|
|
1,
|
|
12,
|
|
1,
|
|
12,
|
|
1,
|
|
12,
|
|
1,
|
|
#GOGOEND
|
|
0202,
|
|
0202,
|
|
0202,
|
|
0202,
|
|
0202,
|
|
0202,
|
|
0202,
|
|
0202,
|
|
0202,
|
|
0202,
|
|
0202,
|
|
0202,
|
|
0202,
|
|
0202,
|
|
0202,
|
|
0200,
|
|
30003003,
|
|
0033,
|
|
12,
|
|
1,
|
|
1005,
|
|
0,
|
|
0,
|
|
00080000,
|
|
30003003,
|
|
03,
|
|
40000001,
|
|
05,
|
|
85,
|
|
00800005,
|
|
00000008,
|
|
0004,
|
|
#GOGOSTART
|
|
30050000,
|
|
0084,
|
|
30050000,
|
|
00000800,
|
|
12,
|
|
1,
|
|
12,
|
|
1004,
|
|
30050000,
|
|
0084,
|
|
30050000,
|
|
00000800,
|
|
1,
|
|
1,
|
|
10010010,
|
|
1111,
|
|
5,
|
|
0,
|
|
8,
|
|
0,
|
|
11,
|
|
10100002,
|
|
00000002,
|
|
00000002,
|
|
00000003,
|
|
03030303,
|
|
03030303,
|
|
#GOGOEND
|
|
#END
|
|
|
|
COURSE:Easy
|
|
LEVEL:3
|
|
BALLOON:
|
|
SCOREINIT:
|
|
SCOREDIFF:
|
|
NOTESDESIGNER0:Colin
|
|
|
|
|
|
#START
|
|
0003,
|
|
00000003,
|
|
00000003,
|
|
0,
|
|
00000000000000
|
|
#GOGOSTART
|
|
00,
|
|
1,
|
|
1,
|
|
1,
|
|
1,
|
|
1,
|
|
1,
|
|
1,
|
|
1,
|
|
#GOGOEND
|
|
0200,
|
|
0200,
|
|
0200,
|
|
0200,
|
|
0200,
|
|
0200,
|
|
0200,
|
|
0200,
|
|
0200,
|
|
0200,
|
|
0200,
|
|
0200,
|
|
0200,
|
|
0200,
|
|
0200,
|
|
0,
|
|
30000003,
|
|
0003,
|
|
1,
|
|
1,
|
|
1005,
|
|
0,
|
|
0,
|
|
00080000,
|
|
30000003,
|
|
0,
|
|
40000001,
|
|
05,
|
|
85,
|
|
00800005,
|
|
00000008,
|
|
0004,
|
|
#GOGOSTART
|
|
30050000,
|
|
0084,
|
|
30050000,
|
|
00000800,
|
|
1,
|
|
1,
|
|
1,
|
|
1004,
|
|
30050000,
|
|
0084,
|
|
30050000,
|
|
00000800,
|
|
1,
|
|
1,
|
|
1,
|
|
1001,
|
|
5,
|
|
0,
|
|
8,
|
|
0,
|
|
11,
|
|
10000002,
|
|
00000002,
|
|
00000002,
|
|
00000006,
|
|
0,
|
|
00000008,
|
|
#GOGOEND
|
|
#END |