generated from DragonRatTiger/Custom-Charts
323 lines
3.1 KiB
Plaintext
323 lines
3.1 KiB
Plaintext
TITLE:dual existence
|
|
TITLEJA:dual existence
|
|
SUBTITLE:--fripSide / A Certain Scientific Railgun T
|
|
SUBTITLEJA:fripSide「とある科学の超電磁砲T」より
|
|
PREIMAGE:dual existence.jpg
|
|
BPM:95
|
|
WAVE:dual existence.ogg
|
|
OFFSET:-0.500
|
|
DEMOSTART:65.343
|
|
BGMOVIE:.mp4
|
|
MAKER:Colin
|
|
|
|
COURSE:Oni
|
|
LEVEL:8
|
|
BALLOON:
|
|
SCOREINIT:
|
|
SCOREDIFF:
|
|
NOTESDESIGNER3:Colin
|
|
|
|
|
|
#START
|
|
11221012,
|
|
12221012,
|
|
12121112,
|
|
50000008,
|
|
#BPMCHANGE 171
|
|
#SCROLL .9
|
|
0000000000102121,
|
|
#GOGOSTART
|
|
1011221120212010,
|
|
0022102010201022,
|
|
1022102010112010,
|
|
0011201011221022,
|
|
1212102000201020,
|
|
2211221000221121,
|
|
1010201000122210,
|
|
0022111122221111,
|
|
1120201020221020,
|
|
2011202010202010,
|
|
1011202020201020,
|
|
02020202,
|
|
#GOGOEND
|
|
10210200,
|
|
10021000,
|
|
10210100,
|
|
10021000,
|
|
10210200,
|
|
10210200,
|
|
10210210,
|
|
1020112211201010,
|
|
10210508,
|
|
10021000,
|
|
10210200,
|
|
50812000,
|
|
1000000011101010,
|
|
10001212,
|
|
1000100010010020,
|
|
1000200022221111,
|
|
1011221010221020,
|
|
1011201011212010,
|
|
1011202210102022,
|
|
1022102210221122,
|
|
1011202210212020,
|
|
1010202010112110,
|
|
50000085,
|
|
0000000000800022,
|
|
1020112020102222,
|
|
1021021020202020,
|
|
#GOGOSTART
|
|
1011221120212010,
|
|
0022102010201022,
|
|
1022102010112010,
|
|
0011201011221022,
|
|
1011221120212010,
|
|
0022102010201022,
|
|
1022102010112011,
|
|
2211221122112222,
|
|
1011221120212010,
|
|
0022102010201022,
|
|
1022102010112010,
|
|
0011201011221020,
|
|
33432323,
|
|
0030203022221012,
|
|
1000102222111010,
|
|
0010221222122210,
|
|
#GOGOEND
|
|
#END
|
|
|
|
|
|
COURSE:Hard
|
|
LEVEL:5
|
|
BALLOON:
|
|
SCOREINIT:
|
|
SCOREDIFF:
|
|
NOTESDESIGNER2:Colin
|
|
|
|
#START
|
|
11221012,
|
|
12221012,
|
|
12121112,
|
|
50000008,
|
|
#BPMCHANGE 171
|
|
#SCROLL .9
|
|
0,
|
|
#GOGOSTART
|
|
11221205,
|
|
08058212,
|
|
1022202020111050,
|
|
8010102011111020,
|
|
11110303,
|
|
03030022,
|
|
20220202,
|
|
02500008,
|
|
1110201050801020,
|
|
1010201020222010,
|
|
21212221,
|
|
01010101,
|
|
#GOGOEND
|
|
1,
|
|
1,
|
|
1,
|
|
1,
|
|
10110200,
|
|
10110200,
|
|
10158120,
|
|
2022202220222220,
|
|
1111,
|
|
1111,
|
|
1111,
|
|
1111,
|
|
1000000010111010,
|
|
50801221,
|
|
1000100010010010,
|
|
2220,
|
|
5000801020020020,
|
|
12101000,
|
|
5000801020020020,
|
|
12101210,
|
|
1000001010010020,
|
|
5080201010010010,
|
|
5,
|
|
00000820,
|
|
3000000030030030,
|
|
3003003000000000,
|
|
#GOGOSTART
|
|
11221205,
|
|
08058212,
|
|
1022202020111050,
|
|
8010102011111020,
|
|
11221205,
|
|
08058212,
|
|
1022202020111050,
|
|
8010102011111020,
|
|
11221205,
|
|
08058212,
|
|
1022202020111050,
|
|
8010102011111020,
|
|
33330303,
|
|
03030022,
|
|
10110101,
|
|
01500008,
|
|
#GOGOEND
|
|
#END
|
|
|
|
|
|
COURSE:Normal
|
|
LEVEL:5
|
|
BALLOON:
|
|
SCOREINIT:
|
|
SCOREDIFF:
|
|
NOTESDESIGNER1:Colin
|
|
|
|
|
|
#START
|
|
11221012,
|
|
12221012,
|
|
12121112,
|
|
50000008,
|
|
#BPMCHANGE 171
|
|
#SCROLL .9
|
|
0,
|
|
#GOGOSTART
|
|
10101101,
|
|
00010110,
|
|
10101111,
|
|
01110020,
|
|
5,
|
|
08,
|
|
00000005,
|
|
00000008,
|
|
1222,
|
|
2222,
|
|
2222,
|
|
2222,
|
|
#GOGOEND
|
|
1,
|
|
1,
|
|
1,
|
|
1,
|
|
1,
|
|
1,
|
|
1,
|
|
1,
|
|
1,
|
|
1,
|
|
1,
|
|
1,
|
|
1,
|
|
1,
|
|
1,
|
|
1,
|
|
5,
|
|
0008,
|
|
5,
|
|
0008,
|
|
5,
|
|
0800,
|
|
5,
|
|
0008,
|
|
5008,
|
|
3003003000000000,
|
|
#GOGOEND
|
|
10101101,
|
|
00010110,
|
|
10101111,
|
|
01110020,
|
|
10101101,
|
|
00010110,
|
|
10110205,
|
|
00000008,
|
|
10101101,
|
|
00010110,
|
|
10101111,
|
|
01110020,
|
|
33330303,
|
|
03030000,
|
|
20000005,
|
|
00000008,
|
|
#END
|
|
|
|
COURSE:Easy
|
|
LEVEL:2
|
|
BALLOON:
|
|
SCOREINIT:
|
|
SCOREDIFF:
|
|
NOTESDESIGNER0:Colin
|
|
|
|
|
|
#START
|
|
2220,
|
|
2220,
|
|
22,
|
|
50000008,
|
|
#BPMCHANGE 171
|
|
#SCROLL .9
|
|
0,
|
|
#GOGOSTART
|
|
10101001,
|
|
0,
|
|
10101001,
|
|
0,
|
|
10000003,
|
|
00030000,
|
|
20000002,
|
|
02202020,
|
|
1,
|
|
1,
|
|
10000001,
|
|
01010101,
|
|
#GOGOEND
|
|
2,
|
|
0,
|
|
2,
|
|
0,
|
|
2,
|
|
0,
|
|
2,
|
|
0,
|
|
2,
|
|
2,
|
|
2,
|
|
2,
|
|
2,
|
|
2,
|
|
22,
|
|
2,
|
|
1,
|
|
11,
|
|
1,
|
|
11,
|
|
1,
|
|
1,
|
|
5,
|
|
0008,
|
|
0,
|
|
1,
|
|
#GOGOSTART
|
|
10101001,
|
|
0,
|
|
10101001,
|
|
0,
|
|
10000001,
|
|
00010000,
|
|
20000002,
|
|
02202020,
|
|
10101001,
|
|
0,
|
|
10101001,
|
|
0,
|
|
10000003,
|
|
00030000,
|
|
20000002,
|
|
02202020,
|
|
#GOGOEND
|
|
#END
|
|
|
|
|
|
|
|
|
|
|
|
|
|
|