generated from DragonRatTiger/Custom-Charts
368 lines
3.3 KiB
Plaintext
368 lines
3.3 KiB
Plaintext
TITLE:graphite/diamond
|
|
SUBTITLE:--May'n / Azur Lane
|
|
TITLEJA:graphite/diamond
|
|
SUBTITLEJA:May'n 「アズールレーン」より
|
|
PREIMAGE:graphitediamond.jpg
|
|
BGMOVIE:graphitediamond.mp4
|
|
WAVE:graphitediamond.ogg
|
|
BPM:195
|
|
OFFSET:-0.092
|
|
DEMOSTART:57.630
|
|
MAKER:Colin
|
|
|
|
|
|
COURSE:Easy
|
|
LEVEL:2
|
|
BALLOON:8
|
|
SCOREINIT:
|
|
SCOREDIFF:
|
|
NOTESDESIGNER0:Colin
|
|
|
|
#START
|
|
7,
|
|
8,
|
|
,
|
|
00000006,
|
|
,
|
|
8,
|
|
0030,
|
|
3,
|
|
3,
|
|
3,
|
|
3,
|
|
#MEASURE 2/4
|
|
00,
|
|
#MEASURE 4/4
|
|
#GOGOSTART
|
|
2020,
|
|
2,
|
|
10001003,
|
|
03030000,
|
|
2020,
|
|
2,
|
|
2000200
|
|
#GOGOEND
|
|
4,
|
|
04040000,
|
|
1,
|
|
,
|
|
1,
|
|
,
|
|
1,
|
|
,
|
|
1,
|
|
2222,
|
|
1020,
|
|
1,
|
|
1020,
|
|
1,
|
|
1020,
|
|
1,
|
|
1010,
|
|
1,
|
|
2020,
|
|
2,
|
|
1010,
|
|
1,
|
|
2020,
|
|
2,
|
|
1010,
|
|
1,
|
|
20002002,
|
|
00001005,
|
|
00000008,
|
|
,
|
|
#GOGOSTART
|
|
10002001,
|
|
,
|
|
10002001,
|
|
00001002,
|
|
00202002,
|
|
00201001,
|
|
00002002,
|
|
0110,
|
|
1010,
|
|
1,
|
|
2020,
|
|
20000001,
|
|
00100001,
|
|
00100002,
|
|
00002002,
|
|
00000003,
|
|
00003003,
|
|
00003006,
|
|
,
|
|
#GOGOEND
|
|
8,
|
|
4040,
|
|
4040,
|
|
40040044,
|
|
,
|
|
#END
|
|
|
|
COURSE:Normal
|
|
LEVEL:5
|
|
BALLOON:8
|
|
SCOREINIT:
|
|
SCOREDIFF:
|
|
NOTESDESIGNER1:Colin
|
|
|
|
#START
|
|
7,
|
|
8,
|
|
,
|
|
00000006,
|
|
,
|
|
8,
|
|
0030,
|
|
3020,
|
|
3020,
|
|
3020,
|
|
3020,
|
|
#MEASURE 2/4
|
|
00,
|
|
#MEASURE 4/4
|
|
#GOGOSTART
|
|
20002022,
|
|
0110,
|
|
10001003,
|
|
03030000,
|
|
20002022,
|
|
,
|
|
2000200
|
|
#GOGOEND
|
|
4,
|
|
04044000,
|
|
1,
|
|
,
|
|
1,
|
|
,
|
|
1,
|
|
,
|
|
1,
|
|
2222,
|
|
1020,
|
|
1120,
|
|
1020,
|
|
1120,
|
|
1020,
|
|
1120,
|
|
1212,
|
|
10010000,
|
|
2022,
|
|
20002022,
|
|
1010,
|
|
10002022,
|
|
2020,
|
|
2022,
|
|
1012,
|
|
1200,
|
|
20002002,
|
|
00201005,
|
|
00000008,
|
|
,
|
|
#GOGOSTART
|
|
10012001,
|
|
0110,
|
|
10012001,
|
|
00101002,
|
|
00202002,
|
|
00201001,
|
|
00002002,
|
|
0112,
|
|
1210,
|
|
1020,
|
|
2220,
|
|
20202001,
|
|
00101001,
|
|
00100202,
|
|
00002002,
|
|
00002003,
|
|
00003003,
|
|
00003006,
|
|
,
|
|
#GOGOEND
|
|
8,
|
|
4040,
|
|
4040,
|
|
40040044,
|
|
,
|
|
#END
|
|
|
|
COURSE:Hard
|
|
LEVEL:5
|
|
BALLOON:15
|
|
SCOREINIT:
|
|
SCOREDIFF:
|
|
NOTESDESIGNER2:Colin
|
|
|
|
#START
|
|
70000008,
|
|
,
|
|
,
|
|
00000001,
|
|
01210121,
|
|
20112012,
|
|
21012021,
|
|
10212021,
|
|
20212021,
|
|
20212021,
|
|
20122120,
|
|
#MEASURE 2/4
|
|
00,
|
|
#MEASURE 4/4
|
|
#GOGOSTART
|
|
10201021,
|
|
01201120,
|
|
10210123,
|
|
03030120,
|
|
10201021,
|
|
01201022,
|
|
1021202
|
|
#GOGOEND
|
|
3,
|
|
03033000,
|
|
1,
|
|
,
|
|
1,
|
|
,
|
|
1,
|
|
,
|
|
10000001,
|
|
21212120,
|
|
10201121,
|
|
01201120,
|
|
10201121,
|
|
01202120,
|
|
11210120,
|
|
21210120,
|
|
10201200,
|
|
12102120,
|
|
10112012,
|
|
10012100,
|
|
12102020,
|
|
11202110,
|
|
21202110,
|
|
11202110,
|
|
21202120,
|
|
21202120,
|
|
10201021,
|
|
01210120,
|
|
11202121,
|
|
,
|
|
#GOGOSTART
|
|
10201021,
|
|
01201020,
|
|
10201021,
|
|
01201120,
|
|
11201021,
|
|
01202110,
|
|
11202121,
|
|
01202120,
|
|
10210120,
|
|
10201021,
|
|
01210121,
|
|
01201120,
|
|
12201120,
|
|
11201020,
|
|
11201120,
|
|
01202120,
|
|
10212010,
|
|
12102121,
|
|
01120101,
|
|
#GOGOEND
|
|
20000011,
|
|
10102011,
|
|
20112021,
|
|
20120144,
|
|
,
|
|
#END
|
|
|
|
COURSE:Oni
|
|
LEVEL:8
|
|
SCOREINIT:
|
|
SCOREDIFF:
|
|
NOTESDESIGNER3:Colin
|
|
|
|
#START
|
|
1111201120112210,
|
|
00001202,
|
|
00102202,
|
|
00101103,
|
|
02222222,
|
|
20122022,
|
|
0010111120202020,
|
|
1010201120101011,
|
|
2010201120102010,
|
|
1010201120102011,
|
|
2120112120112222,
|
|
#MEASURE 2/4
|
|
00,
|
|
#MEASURE 4/4
|
|
#GOGOSTART
|
|
1010201110102010,
|
|
0010202210102010,
|
|
1010201110102030,
|
|
0030003000222111,
|
|
2010201110102010,
|
|
0010201110102011,
|
|
2221211
|
|
#GOGOEND
|
|
4,
|
|
04044120,
|
|
20120122,
|
|
0211,
|
|
10110122,
|
|
00000022,
|
|
20120101,
|
|
0222,
|
|
2000000000200022,
|
|
21212120,
|
|
10211121,
|
|
01201120,
|
|
1000201110102010,
|
|
0010200010102022,
|
|
11221121,
|
|
01211121,
|
|
10201220,
|
|
1020201120101010,
|
|
1000101120101010,
|
|
1001001020112022,
|
|
1020101120102011,
|
|
1001001020101010,
|
|
1000101120101022,
|
|
1020111120101011,
|
|
1010101120101022,
|
|
1020101120112020,
|
|
20201121,
|
|
0010201020111222,
|
|
1000201120202010,
|
|
,
|
|
#GOGOSTART
|
|
3010201110102010,
|
|
0010201110102022,
|
|
1010201110102010,
|
|
2222111110102222,
|
|
1010202210102010,
|
|
0010201110102010,
|
|
10212121,
|
|
0022221110112010,
|
|
1020120210201020,
|
|
1020120210201020,
|
|
1020120210201020,
|
|
1020112010201020,
|
|
1010201110102011,
|
|
1010201110102010,
|
|
02222222,
|
|
1010202220112020,
|
|
10201121,
|
|
0010101020102011,
|
|
21121121,
|
|
#GOGOEND
|
|
3,
|
|
1000101020101011,
|
|
11212121,
|
|
21121121,
|
|
,
|
|
#END
|