Files
2025-06-11 19:53:16 -04:00

412 lines
4.9 KiB
Plaintext
Raw Permalink Blame History

This file contains ambiguous Unicode characters
This file contains Unicode characters that might be confused with other characters. If you think that this is intentional, you can safely ignore this warning. Use the Escape button to reveal them.
TITLE:mathemagics
SUBTITLE:--Sodachi Oikura (CV:Marina Inoue) / Owarimonogatari
BPM:126
WAVE:mathemagics.ogg
OFFSET:-0.317
DEMOSTART:49.364
MAKER:申しコミ & Colin
COURSE:Edit
LEVEL:9
BALLOON:
NOTESDESIGNER4:申しコミ
#START
#SCROLL 0.5
1121010202111010,
1122120202111010,
1121010202111010,
1121020202111010,
1121010202111010,
1122120202111010,
1121010202111010,
11210202
#SCROLL 0.55
1
#SCROLL 0.6
1
#SCROLL 0.66
1
#SCROLL 0.72
1
#SCROLL 0.79
1
#SCROLL 0.86
1
#SCROLL 0.94
1
#SCROLL 1.03
1,
#SCROLL 1.1
2002202110122121,
1022002110221111,
20
#SCROLL 0.6
12111210121120,
1012212210122121,
1012212210122120,
1012212110122120,
2012111210121120,
1012212210122121,
1012212210122120,
1012212111122122,
20
#SCROLL 0.72
12102110211122,
1011202110112022,
1011212210221011,
2122101110111122,
1011202210212011,
2012111210112021,
2012102210112011,
2
#SCROLL 1.7
30
#SCROLL 2
30
#SCROLL 2.5
320
#SCROLL 3.25
3000
#GOGOSTART
00
#GOGOEND
00,
#GOGOSTART
#SCROLL 1
1012101120221040,
2211101210221122,
1022101210122040,
1122102112121211,
2012112210121040,
1221101210121121,
20
#SCROLL 0.91
11201022111010,
#GOGOEND
#GOGOSTART
20112010
#SCROLL 4
40
#SCROLL 0.91
102011,
20102010
#SCROLL 4
40
#SCROLL 0.91
112120,
20112010
#SCROLL 4
40
#SCROLL 0.91
112010,
20102010
#SCROLL 4
40
#SCROLL 0.91
212110,
2011201120102010,
21112011201120
#SCROLL 0.73
2
#SCROLL 0.59
2,
#GOGOEND
#SCROLL 0.49
1,
2222002022220020,
2222002022221020,
#SCROLL 0.54
1122102011221020,
#SCROLL 0.59
100000100100200100200100200000
#SCROLL 0.64
100200102020200100,
20
#SCROLL 0.7
1210
#SCROLL 0.77
212210
#SCROLL 0.84
2012,
1010202010102000
#SCROLL 0.92
201120102010
#SCROLL 4
4000,
#END
COURSE:Oni
LEVEL:8
BALLOON:
NOTESDESIGNER3:Colin
#START
1112010202112010,
1112010202112010,
1112010202112010,
1112010202112010,
1112010202112010,
1112010202112010,
1112010202112010,
1112010200112010,
1012002110120211,
1012002111202222,
1012112210112120,
1012111210112121,
1011211210112121,
1011212210112121,
1012112210112120,
1012111210112121,
1011211210112121,
1011212211112122,
1011211210112112,
1011211210112011,
1011210110112101,
1011212210112211,
1011201210112021,
1011201210112012,
1011201210112012,
120201201000
#GOGOSTART
10
#GOGOEND
00,
#GOGOSTART
1002101110121020,
1012101110121020,
1012101110121020,
1012101110121020,
1012101110121020,
1012101110121020,
1001201021201011,
#GOGOEND
#GOGOSTART
2000201120102010,
2121212020112210,
2010211020112010,
2120201210112120,
2010201210102010,
2210201120102220,
#GOGOEND
1,
1112001011120010,
1112001011122010,
1012101120212012,
1021212210121120,
1012102212101120,
100100200200100200100000101010200100200100200000,
#END
COURSE:Hard
LEVEL:7
BALLOON:
NOTESDESIGNER2:申しコミ
#START
#SCROLL 0.9
1021010202101010,
1022020202101010,
1021010202101010,
1021020202101010,
1021010202101010,
1022020202101010,
1021010202101010,
1021020202201010,
#SCROLL 1
2002202000022020,
0022002000220020,
20
#SCROLL 0.9
22002010220020,
1012002010120020,
1011001010110010,
1012002010120020,
2022002010220020,
1012002010120020,
1011001010110010,
1012002010120020,
20
#SCROLL 0.95
10102000210020,
1010202010210020,
11221211,
22111112,
1010202000210010,
2010102000210010,
2010102010210010,
210301203000
#GOGOSTART
00
#GOGOEND
00,
#GOGOSTART
#SCROLL 1
1012001020222040,
0011103000201020,
1012001020222040,
0011103010111010,
2012001020222040,
0011103000111020,
20
#SCROLL 0.91
10201020111010,
#GOGOEND
#GOGOSTART
21214121,
2010201040222020,
21214121,
2010201040222010,
21212121,
2121212
#SCROLL 0.87
2,
#GOGOEND
#SCROLL 0.83
#SCROLL 0.79
1,
2022002020220020,
2022002020220020,
#SCROLL 0.83
1022002010220020,
#SCROLL 0.87
1011002020
#SCROLL 0.91
120020,
#SCROLL 0.95
201110
#SCROLL 0.99
201110
#SCROLL 1.03
2011,
10201110
#SCROLL 1.08
20202220,
#END
COURSE:Normal
LEVEL:3
BALLOON:
NOTESDESIGNER1:申しコミ
#START
1000000202001010,
1000000202001010,
1000000202001010,
1000000202001010,
1000000202001010,
1000000202001010,
1000000202001010,
1000000202001010,
2020,
20002001,
12201012,
01200001,
12212012,
01000001,
12212012,
01000001,
12202012,
01010202,
00000211,
00210001,
20201021,
00012105,
,
80012215,
,
008000
#GOGOSTART
2
#GOGOEND
0,
#GOGOSTART
1001002000202010,
02120002,
1001002000202010,
01210002,
1001002000202010,
01120112,
00000121,
#GOGOEND
#GOGOSTART
02010000,
00000121,
02010000,
00000121,
02010012,
00012100,
#GOGOEND
11210010,
2002002020020020,
2002002020020020,
1002002010020020,
1001002020020020,
20020020,
02002024,
#END
COURSE:Easy
LEVEL:1
BALLOON:
NOTESDESIGNER0:申しコミ
#START
1000000200000000,
1000000200000000,
1000000200000000,
1000000200000000,
1000000200000000,
1000000200000000,
1000000200000000,
1000000200002000,
2020,
2020,
10001001,
01000000,
20002002,
02000000,
10001001,
01000000,
20002002,
00020002,
00000201,
00010000,
10101002,
00001005,
,
80002005,
,
008000
#GOGOSTART
2
#GOGOEND
0,
#GOGOSTART
10020001,
00020000,
10020001,
00010000,
10020001,
00020002,
00000001,
#GOGOEND
#GOGOSTART
00010000,
00000001,
00010000,
00000001,
00010002,
00000100,
#GOGOEND
10010010,
2020,
2020,
1010,
1020,
20020020,
0020000020020040,
#END