generated from DragonRatTiger/Custom-Charts
584 lines
5.8 KiB
Plaintext
584 lines
5.8 KiB
Plaintext
TITLE:Alma
|
|
SUBTITLE:--ت feat. KAFU
|
|
TITLEJA:アルマ
|
|
SUBTITLEJA:ت feat.可不
|
|
PREIMAGE:Alma.jpg
|
|
BGMOVIE:Alma.mp4
|
|
BPM:175
|
|
OFFSET:-0.030
|
|
DEMOSTART:116.258
|
|
WAVE:Alma.ogg
|
|
MAKER:Colin
|
|
|
|
COURSE:Easy
|
|
LEVEL:4
|
|
SCOREINIT:
|
|
SCOREDIFF:
|
|
NOTESDESIGNER0:Colin
|
|
|
|
#START
|
|
,
|
|
1,
|
|
1,
|
|
1,
|
|
1,
|
|
1,
|
|
1,
|
|
1010,
|
|
1,
|
|
#GOGOSTART
|
|
2020,
|
|
2,
|
|
2020,
|
|
2,
|
|
2020,
|
|
2,
|
|
1010,
|
|
1,
|
|
#GOGOEND
|
|
1,
|
|
1,
|
|
1,
|
|
1,
|
|
1,
|
|
1,
|
|
1,
|
|
1,
|
|
2,
|
|
2,
|
|
2,
|
|
2,
|
|
2,
|
|
2,
|
|
2,
|
|
2000000
|
|
#GOGOSTART
|
|
1,
|
|
0110,
|
|
1010,
|
|
1,
|
|
1010,
|
|
1,
|
|
1010,
|
|
1000000
|
|
#GOGOEND
|
|
3,
|
|
03030000,
|
|
#GOGOSTART
|
|
1010,
|
|
1,
|
|
1010,
|
|
1,
|
|
2020,
|
|
2,
|
|
2020,
|
|
#GOGOEND
|
|
0,
|
|
#GOGOSTART
|
|
1,
|
|
1010,
|
|
1,
|
|
1010,
|
|
#GOGOEND
|
|
1,
|
|
2,
|
|
1,
|
|
2,
|
|
1020,
|
|
1,
|
|
2020,
|
|
2,
|
|
1010,
|
|
1,
|
|
1010,
|
|
1,
|
|
2020,
|
|
2,
|
|
2020,
|
|
20000004,
|
|
,
|
|
,
|
|
,
|
|
,
|
|
1,
|
|
1,
|
|
1010,
|
|
1010,
|
|
1,
|
|
1,
|
|
1010,
|
|
1,
|
|
1,
|
|
1,
|
|
10001003,
|
|
0303000
|
|
#GOGOSTART
|
|
1,
|
|
0110,
|
|
1010,
|
|
1,
|
|
2020,
|
|
2,
|
|
2020,
|
|
2000000
|
|
#GOGOEND
|
|
3,
|
|
03030000,
|
|
#GOGOSTART
|
|
1010,
|
|
1,
|
|
2020,
|
|
2,
|
|
1010,
|
|
1,
|
|
2020,
|
|
#GOGOEND
|
|
2,
|
|
#GOGOSTART
|
|
1,
|
|
1010,
|
|
1,
|
|
1,
|
|
#MEASURE 1/4
|
|
#GOGOEND
|
|
,
|
|
#MEASURE 4/4
|
|
#GOGOSTART
|
|
1001,
|
|
0101,
|
|
0001,
|
|
10101
|
|
#GOGOEND
|
|
000,
|
|
#END
|
|
|
|
COURSE:Normal
|
|
LEVEL:6
|
|
SCOREINIT:
|
|
SCOREDIFF:
|
|
NOTESDESIGNER1:Colin
|
|
|
|
#START
|
|
,
|
|
1010,
|
|
1,
|
|
1111,
|
|
1,
|
|
1111,
|
|
1,
|
|
1111,
|
|
1,
|
|
#GOGOSTART
|
|
20222020,
|
|
2200,
|
|
2222,
|
|
20222020,
|
|
2,
|
|
20222020,
|
|
1012,
|
|
1020,
|
|
#GOGOEND
|
|
1010,
|
|
1110,
|
|
1010,
|
|
1110,
|
|
1010,
|
|
1110,
|
|
1010,
|
|
1010,
|
|
20220020,
|
|
2020,
|
|
20220020,
|
|
2020,
|
|
20222020,
|
|
2222,
|
|
20000003,
|
|
0303000
|
|
#GOGOSTART
|
|
1,
|
|
01101010,
|
|
1111,
|
|
1111,
|
|
10001011,
|
|
1222,
|
|
1212,
|
|
1000200
|
|
#GOGOEND
|
|
3,
|
|
03030000,
|
|
#GOGOSTART
|
|
1212,
|
|
1222,
|
|
1212,
|
|
1020,
|
|
20202022,
|
|
20202022,
|
|
20202022,
|
|
#GOGOEND
|
|
0,
|
|
#GOGOSTART
|
|
10101011,
|
|
10101011,
|
|
10101011,
|
|
1111,
|
|
#GOGOEND
|
|
1010,
|
|
2,
|
|
1010,
|
|
2,
|
|
1121,
|
|
1010,
|
|
2022,
|
|
2,
|
|
10101011,
|
|
1110,
|
|
10111010,
|
|
1101,
|
|
2021,
|
|
2010,
|
|
2021,
|
|
20000004,
|
|
,
|
|
0020,
|
|
2020,
|
|
2020,
|
|
1010,
|
|
1111,
|
|
1011,
|
|
10111010,
|
|
1001,
|
|
1010,
|
|
10101011,
|
|
1010,
|
|
11100010,
|
|
1010,
|
|
10111013,
|
|
0303000
|
|
#GOGOSTART
|
|
1,
|
|
00111010,
|
|
1110,
|
|
1110,
|
|
2121,
|
|
2012,
|
|
2222,
|
|
2020202
|
|
#GOGOEND
|
|
3,
|
|
03030000,
|
|
#GOGOSTART
|
|
1110,
|
|
10111010,
|
|
0121,
|
|
00101011,
|
|
1101,
|
|
1101,
|
|
2021,
|
|
#GOGOEND
|
|
2,
|
|
#GOGOSTART
|
|
10101011,
|
|
1110,
|
|
10101011,
|
|
1010,
|
|
#MEASURE 1/4
|
|
#GOGOEND
|
|
1,
|
|
#MEASURE 4/4
|
|
#GOGOSTART
|
|
1101,
|
|
11101010,
|
|
00100011,
|
|
10111
|
|
#GOGOEND
|
|
000,
|
|
#END
|
|
|
|
COURSE:Hard
|
|
LEVEL:7
|
|
SCOREINIT:
|
|
SCOREDIFF:
|
|
NOTESDESIGNER2:Colin
|
|
|
|
#START
|
|
,
|
|
1212,
|
|
2,
|
|
1111,
|
|
2,
|
|
22202011,
|
|
22202011,
|
|
1001001010101000,
|
|
3,
|
|
#GOGOSTART
|
|
1020220011102000,
|
|
1010200011102000,
|
|
1010222010002000,
|
|
1020100022202220,
|
|
1020220011102000,
|
|
1010200011102000,
|
|
1010222010002000,
|
|
1020100022202220,
|
|
#GOGOEND
|
|
10111011,
|
|
01122002,
|
|
10210102,
|
|
01212002,
|
|
22220112,
|
|
00202021,
|
|
00111112,
|
|
01202000,
|
|
10210121,
|
|
0010201110102000,
|
|
10210121,
|
|
0010201110102000,
|
|
10102022,
|
|
2000201110002010,
|
|
0010101010111030,
|
|
0303002
|
|
#GOGOSTART
|
|
1,
|
|
0010201110100020,
|
|
1010202020222020,
|
|
20112011,
|
|
1000202220202020,
|
|
1000102011100010,
|
|
2010102020202220,
|
|
2000112
|
|
#GOGOEND
|
|
3,
|
|
0030003000202022,
|
|
#GOGOSTART
|
|
20120012,
|
|
00010222,
|
|
21102011,
|
|
22202010,
|
|
10120022,
|
|
00102211,
|
|
11202022,
|
|
#GOGOEND
|
|
0,
|
|
#GOGOSTART
|
|
1020220011102000,
|
|
1010200011102000,
|
|
1010222010002000,
|
|
1020100022202220,
|
|
#GOGOEND
|
|
10222022,
|
|
11112000,
|
|
10210102,
|
|
01212000,
|
|
11110211,
|
|
00102021,
|
|
00111122,
|
|
,
|
|
10210121,
|
|
0010201110102000,
|
|
10210121,
|
|
0010201110102000,
|
|
10102022,
|
|
2000201110002010,
|
|
0010101010111030,
|
|
03030005,
|
|
,
|
|
8222,
|
|
2222,
|
|
2222,
|
|
11210120,
|
|
11211120,
|
|
11210120,
|
|
11211120,
|
|
11210120,
|
|
11211120,
|
|
11210120,
|
|
11211120,
|
|
11210120,
|
|
11211120,
|
|
11210124,
|
|
0404002
|
|
#GOGOSTART
|
|
1,
|
|
0010201110100020,
|
|
1010202020222020,
|
|
20112011,
|
|
1000202220202020,
|
|
1000102011100010,
|
|
2010102020202220,
|
|
2000112
|
|
#GOGOEND
|
|
3,
|
|
0030003000202022,
|
|
#GOGOSTART
|
|
20120012,
|
|
00010222,
|
|
21102011,
|
|
22202010,
|
|
10120022,
|
|
00112211,
|
|
11202022,
|
|
#GOGOEND
|
|
0,
|
|
#GOGOSTART
|
|
1020220011102000,
|
|
1010200011102000,
|
|
1010222010002000,
|
|
1020100022202220,
|
|
#MEASURE 1/4
|
|
#GOGOEND
|
|
1,
|
|
#MEASURE 4/4
|
|
#GOGOSTART
|
|
2200111020001010,
|
|
2000111020001010,
|
|
2220100020001020,
|
|
1000222022
|
|
#GOGOEND
|
|
200000,
|
|
#END
|
|
|
|
COURSE:Oni
|
|
LEVEL:9
|
|
SCOREINIT:
|
|
SCOREDIFF:
|
|
NOTESDESIGNER3:Colin
|
|
|
|
#START
|
|
0000000010020020,
|
|
1212,
|
|
2000200010010010,
|
|
1111,
|
|
20203122,
|
|
4020201021212121,
|
|
1011201011212012,
|
|
0211201021212122,
|
|
2011212011212000,
|
|
#GOGOSTART
|
|
1120121210212122,
|
|
1020211010121022,
|
|
1010221020120120,
|
|
1120212120120122,
|
|
1120121210210122,
|
|
1020212010112022,
|
|
1010221010112021,
|
|
1120212210122022,
|
|
#GOGOEND
|
|
1010202010112020,
|
|
100000100000200000200200101010200000200000200200,
|
|
100000100000200000200200100000101010200000200000,
|
|
100000100000200000100200101010200000200000200000,
|
|
1010202010112020,
|
|
100200100000100000200000100200000200100000202020,
|
|
100000100000200000200200100000101010200000200000,
|
|
1122101112210010,
|
|
11210121,
|
|
0010201210102020,
|
|
1011201110102010,
|
|
100000100000200000100200101010100000200200100200,
|
|
1022102010221020,
|
|
1120102012021010,
|
|
2020101120221030,
|
|
0303001
|
|
#GOGOSTART
|
|
2,
|
|
2011201210112010,
|
|
2010221020112210,
|
|
2010120210112020,
|
|
1021201120222011,
|
|
2010221120112022,
|
|
1011201120112022,
|
|
10112011201210
|
|
#GOGOEND
|
|
40,
|
|
03030111,
|
|
#GOGOSTART
|
|
1120102210112022,
|
|
1011202210201122,
|
|
1011202210112022,
|
|
1011202211202022,
|
|
1011202210112022,
|
|
1011202212102022,
|
|
1011202212104040,
|
|
#GOGOEND
|
|
0000000000004011,
|
|
#GOGOSTART
|
|
1120121210212122,
|
|
1020210112122022,
|
|
1010221120120120,
|
|
1120222120111022,
|
|
#MEASURE 8/4
|
|
#GOGOEND
|
|
#SCROLL 0.8
|
|
10002010200010102010101120101010,
|
|
10112010201010112010101120101011,
|
|
20202010201020112010101120101011,
|
|
#MEASURE 4/4
|
|
1001001020101010,
|
|
#SCROLL 1
|
|
0000000000202011,
|
|
10210121,
|
|
0010201110102000,
|
|
1011201000102010,
|
|
0010201211102022,
|
|
1000102010221020,
|
|
1020102012021010,
|
|
2010101120221030,
|
|
03030012,
|
|
02121212,
|
|
12121212,
|
|
12121212,
|
|
1020102210021020,
|
|
1002102210021020,
|
|
1020102210021020,
|
|
1020102210021020,
|
|
1020102210021020,
|
|
11221212,
|
|
12121212,
|
|
12121212,
|
|
1020102210021020,
|
|
1002102210021020,
|
|
1020102210021020,
|
|
1020102012121030,
|
|
0303011
|
|
#GOGOSTART
|
|
2,
|
|
2022102210112022,
|
|
1111202211202022,
|
|
1120212212102020,
|
|
1121202211201022,
|
|
1011202210112022,
|
|
1011202211202022,
|
|
10112022121120
|
|
#GOGOEND
|
|
40,
|
|
0040004000404022,
|
|
#GOGOSTART
|
|
1211202210112022,
|
|
1011112211202022,
|
|
1110202210112022,
|
|
1011202211102022,
|
|
1011202210112122,
|
|
1011202210112022,
|
|
1011202212112020,
|
|
#GOGOEND
|
|
202020200020
|
|
#SCROLL 2
|
|
4
|
|
#SCROLL 1
|
|
011,
|
|
#GOGOSTART
|
|
1120121210212122,
|
|
1020211010121022,
|
|
1010221020120120,
|
|
1120212120120120,
|
|
#MEASURE 1/4
|
|
#GOGOEND
|
|
,
|
|
#MEASURE 4/4
|
|
#GOGOSTART
|
|
1212102101221020,
|
|
2120101120221010,
|
|
2210101120211120,
|
|
2122110101
|
|
#GOGOEND
|
|
200000,
|
|
#END |