Files
2025-12-20 15:52:49 -05:00

560 lines
5.4 KiB
Plaintext

TITLE:Angel
SUBTITLE:--Kairiki bear feat. Mikoto Meika
TITLEJA:アンヘル
SUBTITLEJA:かいりきベア feat. 鳴花ミコト
BGMOVIE:Angel.mp4
PREIMAGE:Angel.jpg
BPM:184
OFFSET:-7.243
DEMOSTART:67.895
WAVE:Angel.ogg
MAKER:Colin
COURSE:Oni
LEVEL:9
BALLOON:
SCOREINIT:
SCOREDIFF:
NOTESDESIGNER3:Colin
#START
#MEASURE 2/4
11112000,
#MEASURE 4/4
#GOGOSTART
1010201112102210,
1011201120221120,
1010112211102010,
1011221110102022,
1010201112102212,
1010201122112020,
1010201112102010,
1011201110112020,
#GOGOEND
1011221011102010,
1011201122112220,
1120112211101120,
1011201110112022,
1011202011102020,
1011201111112020,
1010221010102020,
1011201110102211,
#GOGOSTART
1010201110102011,
1010201110112010,
1011201111201020,
1011201111112222,
#GOGOEND
1011221011102010,
1011201122112220,
1120112211101120,
1011201110112022,
1011202011102020,
1011201111112020,
1010221010102020,
1011201110102211,
#GOGOSTART
1010201110102011,
1010201110112010,
1011201111201020,
10112011
#GOGOEND
10202020,
300000000000000000100100100000001000000010000000,
300000000000000000100100200000002000000020000000,
300000000000000000100100100000001000000010000000,
300000000000000000100100200000002000000020000000,
101010202010,
101110202020,
101010202020,
303030303030,
101110202020,
101110101010,
101110202020,
303030303030,
1020102011101020,
33330000,
#GOGOSTART
1010200010221020,
33406008,
1020102010111020,
1020102010112000,
1010200010221020,
33406008,
1022102010101020,
0020102010112000,
#GOGOEND
2011201020112010,
2011201020112020,
1011201020112010,
2011201020111010,
2011201020112010,
2011201020112010,
2011201020112010,
2011201011221010,
1011202010112010,
0011221020202020,
1011202210102010,
0011202011111020,
1011201010102010,
0010222011111020,
1011201022112010,
0011201012111010,
#MEASURE 2/4
,
#MEASURE 4/4
1010201011102010,
33330000,
2222,
2222,
2222,
2000200020112000,
10101212,
10101212,
12121212,
#MEASURE 5/4
0,
20300020201020112000,
#MEASURE 4/4
#GOGOSTART
1010200010221020,
33406008,
1020102010111020,
1020102010112000,
1010200010221020,
33406008,
1022102010111020,
102010201011
#GOGOEND
2000,
#GOGOSTART
#SCROLL 1.3
1010200010221020,
33406008,
1020102010111020,
1020102010112000,
1010200010221020,
33406008,
1022102010111020,
00
#SCROLL 1.2
10201020112010,
00
#SCROLL 1.1
20202020112010,
00202010201120
#GOGOEND
#SCROLL 1
10,
0010201122112222,
10101201,
0010222020300000,
#END
COURSE:Hard
LEVEL:6
BALLOON:
SCOREINIT:
SCOREDIFF:
NOTESDESIGNER2:Colin
#START
#MEASURE 2/4
11102000,
#MEASURE 4/4
#GOGOSTART
10201201,
02102220,
10201201,
01202122,
10201201,
02102120,
10201201,
02102222,
#GOGOEND
1011101010102010,
0022202010111000,
33030303,
0020202020222000,
1011101020102010,
0010202010222000,
12010101,
02111120,
#GOGOSTART
10201201,
01201120,
10201205,
0008,
#GOGOEND
1011101020102010,
0011101010111000,
12020202,
1010001010111000,
1022202010102010,
0011101010101000,
12020202,
11111112,
#GOGOSTART
10201201,
11011101,
11101201,
1101
#GOGOEND
1110,
3030,
3030,
3030,
3030,
101010101000,
101010101000,
101010101010,
500000000080,
101010101000,
101010101000,
101010101000,
5,
0008,
33330000,
#GOGOSTART
30403340,
30306008,
12101111,
3333,
30403340,
30306008,
12101113,
03333000,
#GOGOEND
10200120,
10200120,
10200121,
1000200010111010,
12220222,
12220222,
12220222,
1011101010101010,
10201120,
10201120,
10201120,
10101120,
10201120,
10201120,
1011100010102000,
1010100010111010,
#MEASURE 2/4
,
#MEASURE 4/4
3000200011102010,
33330000,
2,
2,
2,
2222,
1111,
1111,
11111111,
#MEASURE 5/4
0,
1201121010,
#MEASURE 4/4
#GOGOSTART
30403340,
30306008,
12101111,
3333,
30403340,
30306008,
12101113,
033330
#GOGOEND
30,
#GOGOSTART
30403340,
30306008,
12101111,
3333,
30403340,
30306008,
12101113,
03333033,
03333033,
0333303
#GOGOEND
3,
,
30303303,
30000400,
#END
COURSE:Normal
LEVEL:5
BALLOON:15
SCOREINIT:
SCOREDIFF:
NOTESDESIGNER1:Colin
#START
#MEASURE 2/4
,
#MEASURE 4/4
#GOGOSTART
1110,
1110,
1110,
1110,
1110,
1110,
1110,
1110,
#GOGOEND
2020,
2020,
5,
8020,
2020,
2,
5,
8020,
#GOGOSTART
1120,
1110,
10102007,
0008,
#GOGOEND
1210,
1210,
5,
8020,
1210,
1210,
2120,
2120,
#GOGOSTART
1012,
1022,
10000002,
2200
#GOGOEND
0000,
3040,
3040,
3040,
3040,
2020,
2020,
2020,
3030,
1010,
1010,
1010,
3030,
6008,
,
#GOGOSTART
3230,
40406008,
1020,
4444,
3230,
40406008,
10102004,
0222,
#GOGOEND
1010,
1010,
1010,
1010,
1010,
1010,
1010,
1010,
1020,
11102000,
1020,
11102000,
1020,
11102000,
1020,
11102000,
#MEASURE 2/4
,
#MEASURE 4/4
1,
3,
2,
2,
2,
2,
1110,
1110,
10101111,
#MEASURE 5/4
0,
0200002020,
#MEASURE 4/4
#GOGOSTART
3230,
40406008,
1220,
4444,
3230,
40406008,
10002004,
044040
#GOGOEND
40,
#GOGOSTART
3232,
40406008,
1222,
4444,
3232,
40406008,
10202004,
04404004,
04404004,
0440400
#GOGOEND
1,
,
3030,
00000300,
#END
COURSE:Easy
LEVEL:2
BALLOON:10
SCOREINIT:
SCOREDIFF:
NOTESDESIGNER0:Colin
#START
#MEASURE 2/4
,
#MEASURE 4/4
#GOGOSTART
1010,
1,
1010,
1,
1010,
1,
1010,
1,
#GOGOEND
2020,
2,
5,
8,
2020,
2,
5,
8,
#GOGOSTART
1020,
1010,
10000007,
0008,
#GOGOEND
1010,
1,
5,
8,
1010,
1,
2020,
2,
#GOGOSTART
1010,
1020,
10000002,
2200
#GOGOEND
0000,
3,
3,
3,
3,
2020,
2020,
2020,
3030,
1010,
1010,
1010,
3030,
6008,
,
#GOGOSTART
3030,
40406008,
1020,
4444,
3030,
40406008,
10002004,
0222,
#GOGOEND
1,
1,
1,
1,
1,
1,
1,
1,
1020,
1120,
1020,
1120,
1020,
1120,
1020,
1120,
#MEASURE 2/4
,
#MEASURE 4/4
1,
3,
2,
2,
2,
2,
1010,
1010,
1011,
#MEASURE 5/4
0,
0200002020,
#MEASURE 4/4
#GOGOSTART
3030,
40406008,
1020,
4444,
3030,
40406008,
10002004,
044040
#GOGOEND
40,
#GOGOSTART
3030,
40406008,
1020,
4444,
3030,
40406008,
10002004,
04404004,
04404004,
0440400
#GOGOEND
1,
,
3030,
00000300,
#END