Files

702 lines
6.0 KiB
Plaintext
Raw Permalink Blame History

This file contains ambiguous Unicode characters
This file contains Unicode characters that might be confused with other characters. If you think that this is intentional, you can safely ignore this warning. Use the Escape button to reveal them.
TITLE:CONNECT:COMMUNE
SUBTITLE:--FLAVOR FOLEY feat. Miku Hatsune
TITLEJA:CONNECT:COMMUNE
SUBTITLEJA:FLAVOR FOLEY feat. 初音ミク
PREIMAGE:CONNECTCOMMUNE.jpg
BGMOVIE:CONNECTCOMMUNE.mp4
WAVE:CONNECTCOMMUNE.ogg
BPM:156
OFFSET:-0.040
DEMOSTART:55.039
GENRE:ボーカロイド
MAKER:Colin
COURSE:Easy
LEVEL:3
NOTESDESIGNER0:Colin
#START
#GOGOSTART
6,
000
#GOGOEND
8,
#GOGOSTART
#SCROLL 1.5
6,
000
#GOGOEND
8,
#GOGOSTART
#SCROLL 2
6,
000
#GOGOEND
8,
#GOGOSTART
#SCROLL 2.5
6,
,
#MEASURE 16/4
#GOGOEND
8
#SCROLL 1
0000000,
#MEASURE 4/4
11,
1110,
11,
1,
22,
2220,
22,
2,
3011,
0011,
1011,
,
2022,
0022,
20202022,
0222,
5,
8,
50000085,
08,
10000001,
0011,
10000005,
08,
#GOGOSTART
30011000,
1110,
1110,
58,
22,
2220,
2022,
58,
11,
1110,
3330,
6868,
6,
08,
300000001000000
#GOGOEND
0,
#GOGOSTART
1
#GOGOEND
0
#GOGOSTART
1
#GOGOEND
0
#GOGOSTART
1
#GOGOEND
0
#GOGOSTART
0
#GOGOEND
0,
#GOGOSTART
3
#GOGOEND
00000
#GOGOSTART
00,
3110,
,
4220,
,
3110,
,
4444,
#GOGOEND
60008006,
08,
11,
1,
22,
2220,
20202005,
08,
10000101,
0011,
11010005,
00080000,
20020020,
0002,
20020050,
0008,
,
#GOGOSTART
3
#GOGOEND
0
#GOGOSTART
3
#GOGOEND
0
#GOGOSTART
3
#GOGOEND
030,
#GOGOSTART
300
#GOGOEND
0000000
#GOGOSTART
0
#GOGOEND
0
#GOGOSTART
0000,
3110,
,
4220,
,
3110,
,
4444,
#GOGOEND
000
#GOGOSTART
0,
1011,
11,
1,
2022,
2220,
22,
2222,
#GOGOEND
5,
08,
#END
COURSE:Normal
LEVEL:4
NOTESDESIGNER1:Colin
#START
#GOGOSTART
6,
000
#GOGOEND
8,
#GOGOSTART
#SCROLL 1.5
6,
000
#GOGOEND
8,
#GOGOSTART
#SCROLL 2
6,
000
#GOGOEND
8,
#GOGOSTART
#SCROLL 2.5
6,
,
#MEASURE 16/4
#GOGOEND
8
#SCROLL 1
0000000,
#MEASURE 4/4
10001011,
1110,
10011000,
1110,
20022022,
2220,
20022000,
2220,
30011010,
00111010,
1011,
,
2222,
00002022,
20202022,
00202022,
5,
8,
50000085,
08,
10000001,
0011,
10000005,
08,
#GOGOSTART
30011001,
1110,
10111010,
58,
20202022,
02202000,
20002022,
58,
10011001,
1110,
3330,
6868,
6,
08,
300000001000101
#GOGOEND
0,
#GOGOSTART
1
#GOGOEND
0
#GOGOSTART
1
#GOGOEND
0
#GOGOSTART
1
#GOGOEND
0
#GOGOSTART
0
#GOGOEND
0,
#GOGOSTART
3
#GOGOEND
00000
#GOGOSTART
00,
30101011,
1,
40202022,
2,
30101011,
1,
4444,
#GOGOEND
60008006,
08,
10101101,
,
20022000,
20222000,
20202005,
08,
10000101,
0011,
11010105,
00080000,
20020020,
0002,
20020050,
0008,
,
#GOGOSTART
3
#GOGOEND
0
#GOGOSTART
3
#GOGOEND
0
#GOGOSTART
3
#GOGOEND
030,
#GOGOSTART
300
#GOGOEND
0000000
#GOGOSTART
0
#GOGOEND
0
#GOGOSTART
0000,
30101011,
1,
40202022,
2,
30101011,
1,
4444,
#GOGOEND
000
#GOGOSTART
3,
10001011,
1110,
1,
20022022,
2220,
22,
20222020,
#GOGOEND
5,
08,
#END
COURSE:Hard
LEVEL:6
NOTESDESIGNER2:Colin
#START
#GOGOSTART
6,
000
#GOGOEND
8,
#GOGOSTART
#SCROLL 1.5
6,
000
#GOGOEND
8,
#GOGOSTART
#SCROLL 2
6,
000
#GOGOEND
8,
#GOGOSTART
#SCROLL 2.5
6,
,
#MEASURE 16/4
#GOGOEND
8
#SCROLL 1
0000000,
#MEASURE 4/4
30201121,
01201122,
1001001020000000,
0020202010010010,
1001001010000000,
0010201020020020,
10021002,
2220,
1011001020001000,
00212012,
1011001020001000,
00212012,
1011001020001000,
0022201020001020,
10202012,
0010201020020020,
50000008,
0000002020020020,
20000202,
0001,
20000202,
0000001020020020,
10000205,
08,
#GOGOSTART
30212001,
2002001020020010,
1000200010010010,
5000000080202220,
10201021,
01202001,
2000200010010010,
58,
1000001020000011,
1001001020020010,
4000400040030030,
6868,
6,
08,
300020001010200
#GOGOEND
0,
#GOGOSTART
3
#GOGOEND
0
#GOGOSTART
3
#GOGOEND
0
#GOGOSTART
3
#GOGOEND
0
#GOGOSTART
3
#GOGOEND
0,
#GOGOSTART
3
#GOGOEND
00000
#GOGOSTART
01,
2000200010110020,
10201121,
2000200010220020,
10201122,
1000200010110010,
0000200010111020,
2222,
#GOGOEND
30201125,
0812,
10201205,
00800012,
1001001020020020,
1002001020020020,
10201125,
0082,
10201125,
0812,
12010125,
0000801110102000,
20020050,
0082,
20020050,
08,
,
#GOGOSTART
3
#GOGOEND
0
#GOGOSTART
3
#GOGOEND
0
#GOGOSTART
3
#GOGOEND
030,
#GOGOSTART
000
#GOGOEND
0000000
#GOGOSTART
0
#GOGOEND
0
#GOGOSTART
3010,
2000200010110020,
10201121,
2000200010220020,
10201122,
1000200010110010,
0000200010111020,
2222,
#GOGOEND
300
#GOGOSTART
3,
1000200010110010,
1000200010102011,
1010200010002011,
1000202220202020,
10201121,
10201122,
3333,
#GOGOEND
6,
08,
#END
COURSE:Oni
LEVEL:8
BALLOON:3
NOTESDESIGNER3:Colin
#START
#GOGOSTART
6,
000
#GOGOEND
8,
#GOGOSTART
#SCROLL 1.5
6,
000
#GOGOEND
8,
#GOGOSTART
#SCROLL 2
6,
000
#GOGOEND
8,
#GOGOSTART
#SCROLL 2.5
6,
,
#MEASURE 16/4
#GOGOEND
8000
#SCROLL 1
0000000000000000000000000002,
#MEASURE 4/4
101100201000
#SCROLL 2
7008,
#SCROLL 1
0010202010112020,
1012011010002000,
0010202010220020,
1012022010112022,
0010202010210110,
1011102210111020,
1020102010212020,
#SCROLL 1.2
3
#SCROLL 1
021012010112020,
0010201020122022,
1012022010102020,
0010201120102020,
1012022010102020,
0011202010220121,
1011212010102022,
1020102010210120,
30000201,
0000002010020020,
10000201,
00010010,
20000102,
0000001020020020,
50008205,
0084,
#GOGOSTART
#SCROLL 1.2
3
#SCROLL 1
021201210112020,
1022012010122020,
1011202010210220,
1021202010210121,
1011202010112030,
0010201211102021,
1010201210222020,
1021202010112020,
1022201110222212,
1012021020120210,
3000400030040030,
60086008,
6,
08,
301202020201201
#GOGOEND
0,
#GOGOSTART
3
#GOGOEND
0
#GOGOSTART
3
#GOGOEND
0
#GOGOSTART
3
#GOGOEND
0
#GOGOSTART
3
#GOGOEND
0,
#GOGOSTART
30
#GOGOEND
2202120200
#GOGOSTART
#SCROLL 1.5
40
#SCROLL 1
20,
3011202010220120,
3022021202112010,
3011201021012020,
3022021202012020,
3021202010220120,
3011201212022020,
32323232,
#GOGOEND
3011212011012020,
1021212010112020,
1021202012112020,
1111210212221222,
1012022010120220,
1012011020210120,
1011201012122010,
1011202012012120,
3022012010112020,
1021202010210121,
1012202010112010,
1202212012012020,
30020050,
0081,
20020050,
08,
1012201012112020,
#GOGOSTART
3
#GOGOEND
0
#GOGOSTART
3
#GOGOEND
0
#GOGOSTART
3
#GOGOEND
1
#SCROLL 1.1
40,
#GOGOSTART
#SCROLL 1.2
30
#SCROLL 1
0
#GOGOEND
2021010
#GOGOSTART
#SCROLL 1.3
4
#GOGOEND
0
#GOGOSTART
#SCROLL 2
3
#SCROLL 1
020,
3011202010220120,
3022021202112010,
3011201021012020,
3022021202012020,
3021202010220120,
3011201212022020,
32323232,
#GOGOEND
300202102010
#GOGOSTART
#SCROLL 2
4
#SCROLL 1
020,
3011201020120220,
3022120211012010,
3012202010120220,
3012022010112020,
3011212010220120,
3012211202022020,
3020111040104010,
#GOGOEND
6,
08,
#END